This file was generated by Ched 2.6.2.0.
#TITLE "mas"
#ARTIST ""
#DESIGNER ""
#DIFFICULTY 0
#PLAYLEVEL
#SONGID ""
#WAVE ""
#WAVEOFFSET 0
#JACKET ""
#REQUEST "ticks_per_beat 480"
#00002: 4
#BPM01: 128
#00008: 01
#TIL00: ""
#HISPEED 00
#MEASUREHS 00
#00112:24000000130013001300130000130000
#00117:0000130000131300
#00116:0014000000000000
#0011b:00000000000013000000000000001333
#00119:0013
#0011a:24
#00212:1300001300130000
#00214:00130013
#00216:0013000013000013
#00219:00000000001300000000000000130000
#0021b:00330013000000001300000000000013
#00217:00000000000000000000001300000000
#00218:13
#0031b:1300001300130000
#00315:00000013000000000013000000000000
#00318:00131300
#00316:0000000000130000
#00317:0000000000000013
#00312:13000000130000130000000000000000
#00319:00000013
#00416:0013000000000013
#00417:0000000000130000
#00419:0000001212001300
#0041b:0000130000000013
#00414:13000013
#00412:0000130000130000
#00415:00000000000000120012000000000000
#0171b:0000000013000013
#01717:00000013
#01718:00000013000000130000000000000000
#01715:0000131300130000
#01712:2400000013000013
#01719:0000000000130000
#01710:41
#0181b:00130000
#01817:0000001300000000
#01812:00000000130000130000000000001300
#0181a:00000013
#01816:0013000000000000
#01814:13000000000000000000001300000000
#01818:1313
#01813:00000000000000000013000000000000
#01819:0000000000130000
#01815:00000000000000000000000000130000
#02118:0013000000000000
#02112:0013130000001313
#0211b:2300000000000013
#02116:0013
#02114:0000001300130000
#02115:23
#02218:13
#0221b:0013130000000000
#02217:0013
#02212:1300000000130000
#02215:0013000000001313
#02219:0000001300000000
#02518:0000000000131300
#02515:00000000000013001300000000130000
#02512:24001313000000000000001300000000
#0251b:00000000000000130000000000001300
#0251f:11
#0251a:24
#02918:0013000000000000
#02915:00000013000000000000000000000000
#02917:0000001212121200
#0291b:2300000000000012
#02912:23
#03017:1200120000130000
#03013:0000001200000000
#0301b:00000013
#03012:0000000000240013
#03016:00000024
#0301a:0000000000000024
#03114:1313131300000000
#0311b:0000000013001313
#03118:0000000000130000
#03115:00000013
#03112:0000000013130013
#03119:1313131300000000
#0421b:1300001300130000
#04219:00130013
#04216:0000000000130000
#04214:00000000001300000000000013000000
#04212:00330013000000001300000000001300
#04215:13
#04217:0013000013000013
#04518:0000002600130000
#04514:0000000000000013
#04515:00130000
#04519:0000000000000013
#0451b:23000023
#04512:2600002300002600
#00915:00130013
#00918:00000000000000001300001300000000
#0091b:23130013
#00917:0000001300000013
#00912:23000000000000001300000000130000
#00916:0013000000130000
#00910:41
#01012:14000000000000130000000013000000
#01016:00140000
#0101b:00000000000000000000000000130000
#01015:0000000000000013
#01018:00130000000013130000000000000013
#01014:0014000000000000
#0101a:00000013000000000000000000000000
#01112:13130013
#0111b:00000000000000000013000000000013
#01116:0013000000000000
#01117:00000000130000130000000000000000
#01115:0000000000120012
#01119:00000000000000000000001200120000
#01912:0013000013000013
#0191b:0000130013000013
#01916:00130013
#01915:13000000000000130000000000000000
#01918:0000001300130000
#01914:0000000000130000
#01312:26000000130000000013000000000000
#0131b:00130000
#01318:0013000000132600
#01315:00000000000026000000001300000000
#01314:0000000000000013
#01319:0000000000000013
#02615:0000130000130013
#0261b:13130013
#02612:0000001313001300
#02618:00000000000000000000000000130013
#0271b:13001313000000000000001300000000
#02712:13000000000000130000000000001300
#02715:0000000000131300
#02718:00000000000013001300000000130000
#0511b:13000000000013000000001300000000
#05119:00001300000000000000000000130000
#05117:00000000130000000000000000000013
#05115:00000000000000130000000000000000
#05118:0000000013130000
#05112:00000000000000000013000000000000
#05116:00000013
#05114:0000000000000013
#05110:41
#0531b:1300001300130000
#05318:00000013000000000013000000000000
#05312:00000013000000001300000000001300
#05316:0000001300000000
#05315:00001300000000000000001300000000
#05317:0000000000000013
#05618:0000120000001200000014000000140000001600000016000000000000333333
#05616:2212000000000000
#05614:0000241400000000
#05612:0000000000000000000000000000000026000000160000000033333300000000
#05512:00000013000026000013000000000000
#0551b:23000013000000000013000000000000
#05518:00000000001600000000000000000000
#05515:00000000000000000000001600000000
#05514:00000028
#05916:00000013000000000000130000000000
#05917:2300001300000000
#0591b:00000013000000000000130000000000
#05912:0000001300000000
#05919:0013
#05914:0013
#05915:0000000000001313
#05918:00000000000000000000000000130013
#06012:1313001300000000
#0601b:13000013000013000000000000000000
#06016:0012
#06018:00000000001300000012001300000000
#06015:0000130000130000
#06014:00000014
#01419:00120012000000000000000000000000
#01412:2212000000000000
#0141c:00000000001200120000000000000000
#01415:0000000000000000220000001200000000000000000000000033333333333333
#0491b:0000001313131313
#04912:14
#04916:0014
#0501b:1313001300000000
#05018:0000130012132600
#05016:00000000000000000012000000000000
#05015:00000000001300000000001300000000
#05012:00000013000013000000000026000000
#02312:13000000000013000013000000000000
#0231b:1313000000001313
#02316:00001300000000000000000000130000
#02314:00000000130000000000001300000000
#02319:0000130000130000
#02317:0000001313000000
#02310:41
#03915:00000013000000130000000000000000
#03918:00000000000000001300001300000000
#0391b:1300001300000000
#03912:1300000000000013
#00512:13131313
#0051b:13131313
#00518:00001300000000130000130000000013
#00515:00000013000013000000001300001300
#00715:0013000000130000
#00713:1300131300000000
#00712:0000000013001313
#0071a:1313130000000000
#00718:0000001300000013
#0071b:0000000013131300
#00618:00001300000000130000130000000013
#00615:00000013000013000000001300001300
#0061b:1313
#00612:00130013
#00815:13
#00819:00130000000000000000001300000000
#00813:0013000013000000
#0081a:00000013000000000013000000000000
#00812:0000000000000000130000001300000000000000000000000033333300000000
#0081b:00000000001300130000000000000000
#00814:0000000000130000
#00818:0000000000000000000000000000000000000000000000000000000000333333
#0121b:13130000
#01217:0013000000000000
#01216:00000000130000130000000000000000
#01218:00000013
#01213:0000000000000012
#0121a:0000000000000033
#0151b:00000000130000000013000000000000
#01512:00130026
#01515:0013002600130000
#01518:26000000000000000000001300000000
#01514:0000000000000013
#01519:0000000000000013
#02012:0000130000000013
#02016:0000001300000000
#0201b:00000000130000130000000000001300
#02013:00000013
#02015:1313
#0201a:00000000000000000013000000000000
#02014:0000000000130000
#02019:13000000000000000000001300000000
#02018:00000000000000000000000000130000
#02017:0013000000000000
#03215:00130000001300000000000000000023
#03218:0000000013000000000000001300000000000000003333330000000023000000
#0321b:00000013000000130000000000000000
#03212:2300000000000000230000000000000000333333000000000000000000000000
#03312:24000000130013001300130000130000
#03317:0000130000131300
#0331b:00000000000013000000000000001333
#03316:0014000000000000
#03319:0013
#0331a:24
#0331f:21
#03412:1300001300130000
#03414:00130013
#03416:0013000013000013
#03419:00000000001300000000000000130000
#0341b:00330013000000001300000000000013
#03418:13
#03417:00000000000000000000001300000000
#0351b:1300001300130000
#03515:00000013000000000013000000000000
#03518:00131300
#03516:0000000000130000
#03517:0000000000000013
#03512:13000000130000130000000000000000
#03519:00000013
#03510:41
#03616:0013000000000013
#03617:0000000000130000
#03619:0000001212001300
#0361b:0000130000000013
#03614:13000013
#03612:0000130000130000
#03615:00000000000000120012000000000000
#03715:00001300000000130000130000000013
#03718:00000013000013000000001300001300
#0371b:13130013
#03712:1313
#03815:0013000013130000
#0381b:00000013000000000000001300000000
#03818:0000131300001313
#03812:13000000000000130000000000000000
#04018:00130000001300000000000000000023
#04015:0000000013000000000000001300000000000000003333330000000023000000
#04012:00000013000000130000000000000000
#0401b:2300000000000000230000000000000000333333000000000000000000000000
#0411b:00000000130013001300130000130000
#04116:0014130000131300
#04112:24000000000013000000000000001333
#04114:0013
#0411a:24
#04315:00130013000013000013001300001300
#04318:00001300001300130000130000130013
#04319:2525
#04312:00250025
#04310:41
#04415:0000130000000000000000001300000000001300000000000033333300000000
#04418:0000000013000000000013000000000000000000130000000000000000333333
#0441b:00000013000000000000001300000000
#04412:00000000250000130000000000000000
#04419:2525
#04614:00001400000000000000001400000000
#04612:00000000000014000000000000000014
#04619:00140000000000000000140000000000
#04618:00000014000000000000000024000000
#04617:00000000001400000000000000001400
#04616:00000000000000140000000000000000
#04615:24000000000000000014000000000000
#04613:00000000240000000000000000140000
#0461a:0024
#04715:0000000000130000
#04718:00130026
#04719:0000000000000013
#04714:0000000000000013
#04716:26
#0471b:0000002300000000
#04712:0000002600002300
#04818:0000000014000000000000000000000000000000000014000000000000333333
#0481a:0000001400000000
#04813:00140000000000000000140000000000
#04814:00000014000000000000000000000000
#04815:0000000000000000000014000000000000000000000000000033333300000000
#04816:00000000000000140000000000000000
#04817:24000000000000000014000000000000
#04819:00240000
#04812:0024
#05212:13000000000013000000001300000000
#05214:00001300000000000000000000130000
#05216:00000000130000000000000000000013
#05218:00000000000000130000000000000000
#05215:0000000013130000
#0521b:00000000000000000013000000000000
#05217:00000013
#05219:0000000000000013
#05412:13000000000000000013000000130000
#05414:00001300000013000000001300000013
#05416:00130000
#0541a:1313131300000000
#0541b:00130000001300000000000000000000
#05419:00000013000000130000130000001300
#05417:00000013
#05413:0000000013131313
#0571b:23000013000000000013000000000000
#05712:23000013001600000013000000000000
#05715:00000000000000000000001600000000
#05718:0000002600000000
#05714:00000028
#02412:00000013001300001300000000001300
#0241b:13000000000013000000001300130000
#02415:00130000000000130000130000000000
#02418:00001300130000000013000000000000
#02416:00000013
#02417:00000000000000000000000000000013
#02818:0000130000130013
#02812:13130013
#0281b:0000001313001300
#02815:00000000000000000000000000130013
#05812:00160016000000000000000000000000
#05818:2616241422120000
#05814:00000000001400140000000000000000
#05816:00000000000000000012001200000000
#0581b:0000000000000000000000000000000000000000000000000033333300000000
#05815:0000000000000000000000000000000000000000000000000000000000333333
#01615:00120012000000000000000000000000
#0161c:2212000000000000
#01612:00000000001200120000000000000000
#01619:0000221200000000
#01618:0000000000000000000000000000000000000000000000000033333333333333
#00018:0000000000000023
#00015:00000000000000000000000000000023
#06112:26
#06118:26
#00356:0000000000530000
#00357:0000000000000053
#0035b:53
#01355:0000001600000000
#01352:36
#01358:00000046
#01052:14
#01054:0014000000000000
#01056:00140000
#05552:0000001600000000
#05554:00000018
#0555b:43
#05052:00000036
#05058:00000046
#00152:34
#0015a:44
#0015b:0000000000000053
#00952:33
#0095b:43
#01258:00000053
#01555:0000001600000000
#01552:00000036
#01558:46
#0325b:00000043
#0355b:53
#03556:0000000000530000
#03557:0000000000000053
#0335b:0000000000000053
#03352:34
#0335a:44
#03458:23
#03955:00000053000000000000000000000000
#03958:00000000000000000000006300000000
#04152:3400000000000063
#0415a:44
#04255:23
#04052:00000033
#0455b:43000043
#04552:3600003300003600
#04558:0000004600000000
#04756:46
#0475b:0000004300000000
#04752:0000003600003300
#04758:00000046
#0495b:4300001300130013
#04952:54
#04956:0024
#0535b:43
#05352:0033
#05758:0000001600000000
#05754:00000018
#0575b:43
#05752:33
#06054:00000034
#0545a:5353535300000000
#0545b:00230000002300000000000000000000
#05459:00000023000000230000000000000000
#05453:0000000063636363
#05452:00000000000000000023000000230000
#05454:00000000000000000000002300000023
#0265b:00530000
#02852:00630000
#01752:0053
#0175b:0000000000000053
#01755:0000000000230000
#01858:23
#0195b:0063
#01952:0000000000000063
#01958:0000000000230000
#02055:23
#00258:23
#06152:36
#06158:46
#0013b0:00000000000000000000000000001333
#002380:33
#0023b0:00332300000000000000000000000000
#0033b0:13
#003380:00000023000000000000000000000000
#003360:0000000000130000
#003320:0000000000000023
#003371:0000000000000013
#0043b1:0023000000000000
#006351:13
#006321:0023000000000000
#006381:00130000
#0063b1:0000002300000000
#006351:0013
#006321:0000000000230000
#006381:00000013
#0063b1:0000000000000023
#008321:0000000000000000000000000000000000000000000000001333333300000000
#008351:0000000000000023
#008380:0000000000000000000000000000000000000000000000000000000013333333
#0093b0:23
#0103b0:00000000000000000013333323000000
#0103a0:0000000000000000000000000000000000000033003300330000000000000000
#010321:00000000000000000013332300000000
#010331:0000000000000000000000000000000000000033003300000000000000000000
#0113b0:13230000000000000000000000000000
#0113b0:00001323000000000000000000000000
#011320:00000000000013230000000000000000
#012320:13230000000000000000000000000000
#012320:00001323000000000000000000000000
#0123b0:00000000000013230000000000000000
#012350:00000000000000000013333323000000
#012340:0000000000000000000000000000000000000033003300330000000000000000
#012381:00000000000000000013333333000000
#012391:0000000000000000000000000000000000000033003300330000000000000000
#0123a1:0000000000000033
#0133b1:23
#014321:00000000000000001323000000000000
#014380:00000000000000000013230000000000
#014351:00000000000000000000132300000000
#0143b0:00000000000000000000001323000000
#014351:0000000000000000000000000000000000000000000000001333333333333333
#015321:23
#0163b1:00000000000000001323000000000000
#016350:00000000000000000013230000000000
#016381:00000000000000000000132300000000
#016320:00000000000000000000001323000000
#016381:0000000000000000000000000000000000000000000000001333333333333333
#0173b1:23
#017321:00001323
#017351:0000000000530000
#0173b1:0000000000000013
#018381:53
#0183b1:0023000000000000
#0183b1:0000000000000013
#0193b1:0023000000000000
#0193b1:00001323
#019381:0000000000530000
#019321:0000000000000013
#020351:53
#020321:0023000000000000
#0213b1:0000130000230000
#022321:00132300
#0223b1:0000000000130000
#022381:0000000000003323
#025371:00001323000000000000000000000000
#025321:00000000000000000000000000001323
#026351:13230000000000000000000000000000
#026381:00001323000000000000000000000000
#0263b1:00130000
#026381:0000000000230000
#027361:00001323000000000000000000000000
#0273b1:00000000000000000000000000001323
#028381:13230000000000000000000000000000
#028351:00001323000000000000000000000000
#028321:00130000
#028351:0000000000230000
#029321:0000000000000012
#030341:0022000000000000
#0303a0:0012000000000000
#0303c0:0000002200000000
#032320:0000000000000000000000000000000013333333000000000000000000000000
#032350:0000000000230000
#032381:0000000000000000000000000000000000000000133333330000000000000000
#0323b1:00000023
#0333b1:00000000000000000000000000001333
#034381:33
#0343b1:00332300000000000000000000000000
#0353b1:13
#035381:00000023000000000000000000000000
#035361:0000000000130000
#035321:0000000000000023
#035370:0000000000000013
#0363b0:0023000000000000
#037350:00130000
#037320:0000002300000000
#037380:0013
#0373b0:0000000000230000
#037350:00000013
#037320:0000000000000023
#0383b0:13
#038380:0023000000000000
#038320:00130000
#038350:0000002300000000
#0383b0:0013
#038380:0000000000230000
#038320:00000013
#038350:0000000000000023
#039380:00001323000000000000000000000000
#039351:00000013000000000000000000000000
#039321:0000002300000000
#039351:00000000000000000000132300000000
#039380:00000000000000000000001300000000
#0393b0:0000000000000023
#0403b0:0000000000000000000000000000000013333333000000000000000000000000
#040380:0000000000230000
#040351:0000000000000000000000000000000000000000133333330000000000000000
#040321:00000023
#041321:00000000000000000000000000001333
#042351:33
#042321:00332300000000000000000000000000
#044351:0000000000000000000000000000000000000000000000001333333300000000
#044321:0000000000000023
#044380:0000000000000000000000000000000000000000000000000000000013333333
#0453b0:23
#045380:00000013230000000000000000000000
#045350:00000000000000000013230000000000
#047350:00000013230000000000000000000000
#047380:00000000000000000013230000000000
#048350:0000000000000000000000000000000000000000000000001333333300000000
#048320:0000000000000023
#048381:0000000000000000000000000000000000000000000000000000000013333333
#0493b1:23
#049320:14
#049360:0054
#050320:24
#051360:13230000000000000000000000000000
#051340:00001323000000000000000000000000
#051320:00000000132300000000000000000000
#052370:13230000000000000000000000000000
#052390:00001323000000000000000000000000
#0523b0:00000000132300000000000000000000
#0543a0:1353535323000000
#0543b0:00530000005300000000000000000000
#054390:00000053000000530000000000000000
#054331:0000000013535353
#054321:00000000000000000053000000530000
#054341:00000000000000000000005300000053
#055331:23
#056321:0000000000000000000000000000000000000000000000001333333300000000
#056351:0000000000000023
#056380:0000000000000000000000000000000000000000000000000000000013333333
#0573b0:23
#0583b0:0000000000000000000000000000000000000000000000001333333300000000
#058380:0000000000000023
#058351:0000000000000000000000000000000000000000000000000000000013333333
#059321:23
