This file was generated by Ched 2.6.2.0.
#TITLE ""
#ARTIST ""
#DESIGNER ""
#DIFFICULTY 0
#PLAYLEVEL
#SONGID ""
#WAVE ""
#WAVEOFFSET 0
#JACKET ""
#REQUEST "ticks_per_beat 480"
#00002: 4
#BPM01: 128
#00008: 01
#TIL00: ""
#HISPEED 00
#MEASUREHS 00
#00119:1414
#00113:00140014
#0051a:14141414
#00614:14141414
#00718:14141414
#0091a:14
#00918:0014
#00914:00140000
#00912:00000014
#00910:41
#0111a:14
#01118:00001414
#01114:00140000
#01212:14
#01214:00001414
#01218:00140000
#01813:1414
#01919:1414
#02013:1414
#02119:14141414
#02113:14
#02213:14141414
#02219:14
#02318:1414
#02314:00140014
#02310:41
#0291a:14
#02918:0014
#02912:00140000
#02914:00000014
#0301a:14
#03014:00000014
#03012:00140000
#03018:0014
#03118:14140000
#03114:00001414
#03218:14141414
#03214:0014001400140000
#0341a:14
#03418:0014
#03414:00140000
#03412:00000014
#0351a:14140000
#03512:14
#03514:0014
#03518:00000014
#03510:41
#03713:14141400
#03719:0014001400000000
#03819:14141400
#03813:0014001400000000
#03912:14140000
#0391a:00001414
#03918:0014000000000000
#03914:0000000000140000
#0511a:14
#05112:14
#05118:0014
#05114:00140014
#05110:41
#05212:14
#0521a:14
#05214:0014
#05218:00140014
#0531a:1414
#05312:14
#05316:00140014
#05412:1414
#0541a:14
#05416:00140014
#01719:0014
#01710:41
#02619:0014
#02613:0014
#02819:0014
#02813:0014
#03318:0014
#03312:00140000
#03314:00000014
#03319:24
#0331f:21
#0131a:14
#01317:0000001400000000
#01512:14
#01515:0000001400000000
#04512:14
#04518:14
#04519:0000001400000000
#04513:0000001400000000
#0471a:14
#04714:14
#04713:0000001400000000
#04719:0000001400000000
#04912:14
#04918:14
#0591a:14
#05918:00140014
#05914:0014
#06012:14
#06014:00140014
#06018:0014
#03612:14
#03614:0014
#03618:00140000
#0361a:00000014
#00313:1414
#00319:00140014
#0101a:14
#01018:0014
#01014:00140000
#01012:00000014
#02418:14
#04014:14141414
#04018:0014001400140000
#04212:14
#04214:0014
#04218:00140000
#0421a:00000014
#04312:14140000
#0431a:14
#04318:0014
#04314:00000014
#04310:41
#04114:0014
#0411a:00140000
#04118:00000014
#04113:24
#0441a:14
#04418:0014
#04414:00140000
#04412:00000014
#0251f:11
#05518:24
#05512:24
#05513:0000002400000000
#05519:0000002400000000
#05514:00000024
#0551a:00000024
#05714:24
#0571a:24
#05719:0000002400000000
#05713:0000002400000000
#05718:00000024
#05712:00000024
#06118:26
#03359:14
#04952:54
#04958:54
#06158:16
#04153:14
#06054:00000014
#002390:1424
#004330:1424
#008320:14000024
#013340:00000014
#014340:00000024
#015380:00000014
#017380:24
#024340:00140024
#025380:14
#0263a0:24
#027340:14
#028320:24
#0453a0:00000014
#0463a0:00000024
#045341:00000014
#046341:00000024
#047321:00000014
#048321:00000024
#047380:00000014
#048380:00000024
#049380:14
#0503a0:00000024
#049321:14
#050341:00000024
#0553a1:00000014
#0563a1:0024
#055340:00000014
#056340:0024
#057320:00000014
#058320:0024
#057381:00000014
#058381:0024
