This file was generated by Ched 2.6.2.0.
#TITLE ""
#ARTIST ""
#DESIGNER ""
#DIFFICULTY 0
#PLAYLEVEL
#SONGID ""
#WAVE ""
#WAVEOFFSET 0
#JACKET ""
#REQUEST "ticks_per_beat 480"
#00002: 4
#BPM01: 105
#00008: 01
#TIL00: ""
#HISPEED 00
#MEASUREHS 00
#00019:14
#00113:14
#00219:14
#00313:14
#00418:14
#00410:41
#00518:14
#00614:14
#00714:14
#0081a:14
#0091a:14
#01012:14
#01010:41
#01112:14
#01219:14
#01313:14
#01613:14
#01610:41
#01719:14
#02018:2616
#02112:1616
#02218:16
#02212:0016
#02412:1616
#02410:41
#02518:1616
#02612:16
#02618:0016
#0281a:14
#0281f:11
#02914:14
#03018:14
#03112:14
#0321a:14
#03314:14
#03418:14
#03512:14
#03618:2616
#0361f:21
#03712:1616
#03710:41
#03818:16
#03812:0016
#04012:1616
#04118:1616
#04212:16
#04218:0016
#04413:0014
#04419:14
#04619:0014
#04613:14
#04813:0014
#04819:14
#04810:41
#05012:14
#05018:0014
#05114:14
#0511a:0014
#05213:14
#05319:14
#05413:14
#05519:14
#014390:14
#015390:24
#018330:14
#019330:24
#023380:1626
#027320:1626
#039380:1626
#043320:1626
#045390:14000024
#047330:14000024
#049390:14000024
#056330:1424
#057390:140000000000000000000000340000000000000034000024
