This file was generated by Ched 2.6.3.0.
#TITLE ""
#ARTIST ""
#DESIGNER ""
#DIFFICULTY 0
#PLAYLEVEL
#SONGID ""
#WAVE ""
#WAVEOFFSET 0
#JACKET ""
#REQUEST "ticks_per_beat 480"
#00002: 4
#BPM01: 105
#00008: 01
#TIL00: ""
#HISPEED 00
#MEASUREHS 00
#0001c:1200000000000012
#00016:000012000000000000000000000000000000000000120000
#00018:000000120000000012000000000000000012000000000000
#00015:0012
#00019:0000000000000000000000000000000000120000000000000000000000000000
#00012:000000000000000000000000000000000012000000000000
#00418:1300131300000000
#00415:000000130000001300000000130000000000000000000000
#0041b:0013
#00412:0000001300000000
#00410:41
#00612:1300000013000013
#00616:000000140000130000140000000000000013000000000000
#0061b:0000130000131300
#00617:1313
#0071a:140000140000000000000000000000000014000000000000
#00716:001400140000001400140000
#00712:000000000014000000000000140000140000000000000000
#00718:000000000013
#00715:000000000000000000000000000000000000000000130013
#00818:13130000
#00812:0013001313000000
#0081b:0000001300000000
#00817:0013
#01017:1313
#01012:0013001313000000
#01016:00130000
#01015:0000000000130000
#0101b:000000130000000000130000000000000000000013000000
#01018:000000000000000000000000000000000013000000000000
#01010:41
#0111b:130000000013
#01119:0013000000000000
#01117:00130000
#01112:000000130000001300130000
#01118:0000001300000000
#01115:000000000000000000000013000000000000000000130000
#01114:0013000000000000
#01217:13130000
#01216:0013001300000000
#0121b:00001313
#01215:0000000000000013
#01212:0013
#0131b:1300001300000000
#01318:0000130000000013
#01317:0013
#01316:0000000000130000
#01312:13000013
#01315:000000000000000000000000000000000000000000000013
#01418:130000000000000000130013000000000000000000000000
#01415:000013130000
#01412:13
#0141b:0013
#01518:000000000000000013000000000000130000000013000000
#01515:000000000000000000130000000013000000000000130013
#0151b:130000000000000000000013000000000000000000000000
#01517:000000000013000000000000000000000000000000000000
#01512:000013
#01617:1313
#01619:0013001300000000
#0161b:00130000
#01615:0000000000130000
#01618:000000000000000000000000000000000013000000000013
#01612:0013
#01610:41
#01712:000000000000130000000000000013000013000000000000
#01717:0000000000130000
#0171b:000000000000000000000000130000000013000000000000
#01714:0013001300000000
#01714:0000001300000000
#01716:1313
#01812:000000000000000000000013130000000013000000000000
#01819:000000130000000000130000000013000000000000000000
#0181b:000000000000130000000000000000000013000000000000
#01817:1313
#0191b:13131300
#01912:0013001300001300
#01916:2424242424002400
#02018:000000130000000000130000130000130013000000130000
#02015:000000000000130000000013000000000000130000000000
#0201b:00130013
#02012:2413
#02118:000000130013000000000000000013000013000000130000
#02115:000000000000130000130013000000130000130013000000
#0211b:00131313
#02112:2413
#02215:000000130000130000000013000000130000130000000000
#02218:000000000013000000130000000013000013000000130000
#0221b:00131313
#02212:2413
#02415:000000140014000000000000000000140014000000130000
#02419:00130013
#02417:000000000000000000140014000000000000000000000000
#02414:0013
#02412:00130013
#0241b:0013
#0241a:24
#02410:41
#02515:000000000014000000000000000014000000000014000000
#02512:0000130000130013
#02514:0000001300000000
#02517:000014000000000000000014000000000014000000000000
#0251b:0013000013001300
#0251a:24
#02615:000000130013000000000000000000000000130000000000
#02618:000000000000130000000000000000130013000000000000
#0261b:230000000000000013130000000000000000130000000000
#02612:000000000000130000000023000000000000000013130000
#02715:130000000013000000000000000000000000000000000000
#02718:0013000000000000
#02717:0000000000130000
#0271b:1313
#02812:1c00000000000013
#02816:000000000000000000000000000000000013000000000000
#02817:000000000013
#02818:00131300
#0281b:0000001300000000
#0281f:11
#03112:130000000000000000000000000000240000000000000013
#03115:000000000013000000000000000000000000000000000000
#0311b:13000013
#03116:000000000000000000000000000026000000001300000000
#03119:000000000013
#03114:000000000000000000000026000000000000000000130000
#03117:000000000000000000000013
#0311a:0024
#03215:19
#03218:000000000000000000000000000000000013000013000000
#0321b:0000000000000013
#03212:0016001600160016
#03315:000000000000000000000000000000000013000000000000
#03312:190000000000000000000000000000000000000000333333
#03318:0016001600160016
#03518:12121200
#03516:0012001200000000
#03512:00000025
#03519:00000025
#04415:000000130013000000000013000000130000000000130000
#04418:000000000000130000000000130000000013000013000000
#0441b:0000001300000000
#04412:13000013
#04618:130000130013000000000013000000130000000000130000
#04615:000000000000130000000000130000000013000013000000
#04612:0000001300000000
#0461b:00000013
#05012:000000130000000000000000000000000000000024000000
#05015:000000000013000000000000000000000000130000000000
#05018:130000000000130000000000000000000013000000000000
#0501b:0000000000130000
#0501a:002400
#05014:0000002600000000
#05016:0000000000000026
#05112:130000000013000000000000000000130000000000000000
#05118:130000000013000000000000000000000000000000000000
#0511b:000000000000000000000013000000000000000000000000
#05116:0013
#05117:000000000000001300000000
#05115:0013000000000000
#05418:0013000000000000
#05415:00131300
#05412:0000001300000000
#0541b:1313
#0561a:12
#05618:0012000012001200
#05616:00120000
#05614:0000001200000000
#05714:120000000014
#05718:0000120000000014
#05716:000000120000000000000000120000000000120000000014
#0571a:0000001200000000
#0021b:1300000000000013
#00215:001300000000130000000000
#00218:0000000013000000000000000000000000130000000000000000000000000000
#00217:000000000000000013000000000000000013000000000000
#00212:000000000000000013000000000000000013000000000000
#00216:0000000000000013
#00312:13
#00318:001300000000000000001300
#00315:000000130000000000000000000000000000000000130013
#0031b:000000000000000013000000000000000013000000000000
#00316:001300
#00317:000000000000000000000013000000000000000000000000
#00319:000000000000001300000000
#00515:130000000000130000130000000000000000000000130013
#00518:000000130000001300000000130000000000000013000000
#00512:0013
#0051b:0000001300000000
#00915:13130000
#0091b:000000130000000000130000130000000000000013000000
#00912:000000000000000000130000000000000000000000000013
#00916:0000000013000013
#00112:12
#00118:001200000000000000001300
#00116:000000120000000012000000000000000012000000000000
#00115:000000000000000000000000000000000000000000000000000000000000000000000000000000000000000000000000000000120000000000000000000000000000000000000000000000000000000000000000130000000000000013000000
#0011c:000000000000000000000000000000000012000000000000
#00119:0012
#02312:13131300
#0231b:0013001300001300
#02316:2424242424002400
#02912:1c00001300000000
#02917:000000000000000000000000000000000013000000000000
#02915:00131300
#02916:000000000013
#0291b:000000000000000000000000000000000000000000333333
#03012:1600001300000000
#03017:000000000000000000000000000000000013000000000000
#03016:000000000013
#0301b:0000000000000013
#03015:00131300
#03418:1616
#03412:0000160000000012
#03415:0016001600000000
#03416:0000000000140000
#03414:00000012
#0341a:00000012
#0341c:0000000000000012
#03615:000000130000000000000000000000130013000000130000
#03618:000000000000000000000013000000000000000000000000
#03612:13130013
#0361b:0013
#0361a:24
#0361f:21
#03715:000000130013000000000000000000000013000000130000
#03718:000000000000000000130013000000130000000013000000
#03712:13131313
#0371b:0013
#0371a:24
#03710:41
#03815:000000130013000000000000000000000013000000130000
#03818:000000000000000000130013000000130000000000000000
#03812:13131313
#0381b:0013
#0381a:24
#0391b:0013
#03912:00000013
#03916:2424242424002400
#04016:000000140014000000140014000000000000000000000000
#04013:00130000
#0401a:0013
#04015:000000000000000000000000000000000014000000000000
#04012:24000013
#04018:0000000000000013
#0401b:13
#0411a:0013000013000000
#04116:000014000014000000000014000014000014000000000000
#04113:00130000
#04118:000000000000000000130000000000000000000013000000
#0411b:0000130000131300
#04112:24001313
#04115:0000000000000013
#04215:000000000013000000000000000000000000000000000000
#04212:230000000000130000000023000000000000000013130000
#0421b:230000000000000013130023000000000000130000000000
#04218:000000000000000000000000000000000013000000000000
#04318:130000000013000000000000000000000000000000000000
#04315:0013000000000000
#04316:0000000000130000
#04312:1313
#04512:00000000000000130000000000000000
#04518:0000130000000013
#04517:0013
#04519:000000000000001300000000
#0451b:000000000000000000000000000000000013000013000000
#04815:1300000000000013
#04812:000000130000000000000013000000000000000000000000
#0481b:000000000000130000000000000000000013000000000000
#04818:000000000000000000130000000000000000000013000000
#04817:0013
#04816:000000000013000000000000000000130000130000000000
#04810:41
#0471b:00000000000000130000000000000000
#04715:000000000000000000130000130000000000000013130000
#04712:000000130000000000000000000013130000130000000000
#04912:00000000000000130000000000000000
#0491b:000000130000000000000000130000000000000013130000
#04918:000000000000000000130000000013130000130000000000
#0521c:1200000000000012
#05216:000012000000000000000000000000000000000000120000
#05218:000000120000000012000000000000000012000000000000
#05215:0012
#05219:0000000000000000000000000000000000120000000000000000000000000000
#05212:000000000000000000000000000000000012000000000000
#05312:12
#05318:001200000000000000001300
#05316:000000120000000012000000000000000012000000000000
#05319:0012
#05315:000000000000000000000000000000000000000000000000000000000000000000000000000000000000000000000000000000120000000000000000000000000000000000000000000000000000000000000000130000000000000013000000
#0531c:000000000000000000000000000000000012000000000000
#05515:0013000000000000
#05518:000000130000130000001400
#0551b:0000001300000000
#05512:1313
#05514:0000000000000014
#05516:000000000000000000000000000000000000000000000014
#00455:0053
#0045b:0053
#00558:0063
#00552:0063
#0065b:00000053
#00852:0053
#00857:0053
#0095b:0063
#00956:0063
#0125b:0053
#01252:0053
#0135b:0000001300000000
#01357:0013
#01356:0000000000130000
#01352:53000013
#01452:530000000000000000000000000000000013000000000000
#01458:530000000000000000000000000000000013000000000000
#01455:000000000013000000000000630000000000000000000000
#0145b:000000000013000000000000630000000000000000000000
#0075a:0014000000000000
#00756:00140014
#00752:0000000000140000
#02858:0053
#02955:0063
#03055:0063
#03252:0016001600160016
#03358:0016001600160016
#01657:0053
#04358:53
#04455:0000000000000053
#04552:00000000000000230000000000000000
#04658:0000000000000063
#0475b:00000000000000230000000000000000
#04855:0000000000000053
#04952:00000000000000230000000000000000
#0495b:0013000000000000
#04958:0000001300000000
#0545b:0063
#05455:0063
#05552:0053
#05558:0053
#01956:00001414
#02356:00001414
#0315b:53
#03154:000000000000000000000016000000000000000000000000
#0315a:0014
#03156:000000000000001600000000
#03152:0000000000140000
#03956:00001414
#02755:53
#05158:53
#02052:14
#02152:14
#02252:14
#0245a:14
#0255a:14
#0365a:14
#0375a:14
#0385a:14
#04052:14
#04152:14
#01552:000000000013000000000000000000001300000000000000
#0155b:000000000000000000000013000000000000000000000000
#05054:0000001600000000
#05056:0000000000000016
#003320:000000000000000000000013000000330000230000000000
#003350:000000000000000000000000000033000033000000000000
#004350:0013
#004320:00000023
#0043b1:0013
#004381:00000023
#005381:0013
#0053b1:00000023
#005320:0013
#005350:00000023
#0063b0:00000013
#006370:0000000000000023
#008320:0013
#008360:00000023
#008371:0013
#0083b1:00000023
#0093b1:0013
#009371:00000023
#009360:0013
#009320:00000023
#010360:000000000013
#011360:23
#011370:000000000000001300230000
#011320:000000000000000000000000000000000000000000000013
#012320:23
#0123b0:000013230000000000000000000000000000000000000000
#012320:000000000013230000000000000000000000000000000000
#0123b0:000000000000000013230000000000000000000000000000
#012320:0013
#012350:0000000000230000
#0123b1:0013
#012381:0000000000230000
#012321:000000000000000000000000000000000013230000000000
#012381:000000000000000000000000000000000000000013230000
#013321:13
#013351:00230000
#013361:000000000000000013230000000000000000000000000000
#013321:000000000000000000000013230000000000000000000000
#0133b1:000000000000000000000000000013230000000000000000
#013371:000000000000000000000000000000000013230000000000
#014321:13
#014351:000000000023000000000000000000000000000000000000
#014380:13
#0143b0:000000000023000000000000000000000000000000000000
#0143b0:0013
#014380:000000000000000000000000000000000023000000000000
#014351:0013
#014321:000000000000000000000000000000000023000000000000
#015361:13
#015321:000000000023000000000000000000000000000000000000
#016321:1323000000000000
#016321:0000132300000000
#016371:0013
#0163b1:0000000000230000
#0173b1:1323000000000000
#0173b1:0000132300000000
#018321:1323000000000000
#018321:0000132300000000
#026351:000000000000000013230000000000000000000000000000
#026381:000000000000000000000000000000000000000013230000
#027351:13
#027321:0023000000000000
#027361:000000000000000000000013230000000000000000000000
#027321:000000000000000000000000000013230000000000000000
#027381:00000000000000000000000000000000000000000000000000000000000000000000000000000000000000000000000013000000000000532300000000000000
#027391:00000000000000000000000000000000000000000000000000000000000000000000000000000000000000000000000000540055005400000000000000000000
#027361:0000000000000000000000000000000000000000000000000054005400000000
#027351:00000000000000000000000000550000
#028351:000000000013000033000033000000000000000000000000
#028321:0000333323000000
#028380:0013
#0283b0:000000000000000000000000000000000023000000000000
#029380:000000000013000033000033000000000000000000000000
#0293b0:0000333323000000
#029351:0013
#029321:000000000000000000000000000000000023000000000000
#0293b1:000000000000000000000000000000000000000013333333
#030381:23
#030381:000000000013000033000033000000000000000000000000
#0303b1:0000333323000000
#030350:0013
#030320:000000000000000000000000000000000023000000000000
#0313b0:13
#031380:000000000023000000000000000000000000000000000000
#032380:000000000013000033000033000000000000000000000000
#0323b0:0000333323000000
#033350:000000000013000033000033000000000000000000000000
#033320:0000333323000000
#033320:000000000000000000000000000000000000000013333333
#034350:23
#036380:0013230000000000
#036350:0000001323000000
#036380:000000000000000000000000000000000013230000000000
#037380:0013230000000000
#037350:000000000000000000130023000000000000000000000000
#037350:000000000000000000000000000013230000000000000000
#037380:000000000000000000000000000000000013230000000000
#038380:000000000013230000000000000000000000000000000000
#038350:000000000000000000130023000000000000000000000000
#038350:000000000000000000000000000013230000000000000000
#038380:000000000000000000000000000000000013230000000000
#0393b0:1323000000000000
#039320:0000132300000000
#0403b0:000000000013230000000000000000000000000000000000
#040320:000000000000000000000013230000000000000000000000
#040390:000000000000000000000000000000130033000000000000
#0403b0:00000023
#042380:000000130033000000000000000000000000000000000000
#0423b0:00230000
#042360:000000000000000014240000000000000000000000000000
#042350:000000000000000000000000000000130033000000000000
#042320:00000023
#042360:000000000000000000000000000000000000000014240000
#043380:13
#0433b0:0023000000000000
#043370:000000000000000000000013230000000000000000000000
#0433b0:000000000000000000000000000013230000000000000000
#0433b0:000000000013
#043380:000000000000000000000000000000000000000000330033
#0443b0:23
#044350:0000000000000013
#045320:00000000000000530000000000000000
#046350:23
#0453b1:001300000000000000000000
#045381:0023000000000000
#045381:001300
#0453b1:0000002300000000
#046380:0000000000000013
#0473b0:00000000000000530000000000000000
#048380:23
#047321:000000000013000000000000000000000000000000000000
#047351:00230000
#048350:0000000000000013
#049320:00000000000000530000000000000000
#050350:23
#051380:13
#0513b0:0023000000000000
#051350:00000000000000000000000000000000000000000000000000000000000000000000000000000000000000000000000013000000000000532300000000000000
#051330:00000000000000000000000000000000000000000000000000000000000000000000000000000000000000000000000000540000005400000000000000000000
#051360:0000000000000000000000000000000000000000000000000054555400000000
#051320:00000000000000000000000000000000000000000000000000000000000000000000000000000000000000000000000000000055000000000000000000000000
#054350:0013
#054320:00000023
#0543b1:0013
#054381:00000023
#055381:0013
#0553b1:00000023
#055320:0013
#055350:00000023
#056360:00001222
#057380:00001222
