This file was generated by Ched 2.6.2.0.
#TITLE ""
#ARTIST ""
#DESIGNER ""
#DIFFICULTY 0
#PLAYLEVEL
#SONGID ""
#WAVE ""
#WAVEOFFSET 0
#JACKET ""
#REQUEST "ticks_per_beat 480"
#00002: 4
#BPM01: 105
#00008: 01
#TIL00: ""
#HISPEED 00
#MEASUREHS 00
#0001b:1300000013000013
#00012:000000130000000000000000000000000013000000000000
#00018:000000130000000000000000000000000013000000000000
#00015:000000000000000013000000130000000000000000130000
#00418:1313
#00415:0013000000000000
#0041b:00130000
#00412:0000001300000000
#00410:41
#00616:0014001400000000
#00612:0000130000130000
#00615:00000013
#00618:130000000000000000000000000000000013000000000000
#0061b:0013
#0071a:140000140000000000000000000000000014000000000000
#00714:001400000000000000140000
#00712:000000000014000000000000140000140000000000000000
#00718:000000140000001400001300
#00715:000000000000000000000000000000000000000000130013
#00818:13131300
#00815:0013000000000000
#0081b:0000001300000000
#00812:0000001300000000
#01018:130000000000000000000000130000000013000000000000
#01012:0013001300000000
#01015:0000130000130000
#0101b:0013001300000000
#01010:41
#01119:0013000000000000
#0111b:00130000
#01118:0000001300000013
#01115:000000000000000000000013000000000000000013000000
#01114:0013000000000000
#01116:00130000
#01112:000000000000000000000000000000000000000000000013
#01218:13131313
#0121b:0013001300000013
#01215:000013000000000013000000000000000000000000130000
#01212:000000000013000000000000130000000000130000000000
#01318:130000000000000000000013000000000013000000140000
#01314:000000000000000000000000000000000000000000000014
#01312:13001313
#01315:0000001300130000
#0131b:000000001300001300000000
#01418:000000000000000014000014000000000000000000000000
#01414:0000001400000000
#01518:000000000013000013000000000000130000000013000000
#01515:130000000000000000130000130013001300000000130013
#0151b:1313
#01512:000000000013000000000000000000000000000000000000
#01618:130000000000000000000000130000000000000000000013
#01615:000000130000000000000000000000000013000000000000
#0161b:00130000
#01612:0000001300000000
#01610:41
#01718:000000130000000000000000000013000000000000000000
#01715:1300000013130000
#01712:000000000000130000000000000000000013000000000000
#0171b:000000000000000000130000000000000013000000000000
#01812:000000000000000000000000130000000013000000000000
#01818:000000000000000000000013000013000000000000000000
#0181b:000000000000000000000000000000000013000000000000
#02018:000000130000000000000000000000130013000000130000
#02015:00131300
#0201b:000000000000000000130013000000000000000000000000
#02012:26000013
#0211b:0013000000000000
#02115:000000000013000000000000130000130000130013000000
#02112:2600001300000000
#02118:000000000000130000000013000013000013000000130000
#0221b:0013000000000000
#02218:000000000013000000000000130013000000130000000000
#02212:2600001300000013
#02215:000000000000130000000013000000130013000000000000
#02612:0013000000000000
#02618:260000000013000013000026000000000000130000130000
#02615:000000000000130000130000000000000013000013000000
#0261b:0000000000130000
#02715:1300000000130000
#02712:0013
#02718:000000000000000000000013000000000000000000000000
#0271b:000000000000001300000000
#02812:13130000
#02818:000000000013000000000013000000000000000013000000
#02815:0000001313000013
#0281b:131300
#0281f:11
#0321b:13
#03212:1316000000160000
#03218:0000131600001316
#03215:0013
#03412:13131313
#03415:0000001300000013
#0341b:13131313
#03418:0013000000130000
#03518:13131300
#03515:0013001300000000
#03512:00000024
#0351a:00000024
#04412:0013000000131300
#04415:000000000000130000000013000000000000000000130000
#0441b:000000000000000000130000000000000000000013000000
#04418:130000000013000000000000130000000013000000000000
#05012:0013000000000000
#05018:000000000013000024000000000000000000130000240000
#05015:000000000000130000000000000000000013000000000000
#0501b:0000000000130000
#05014:000000000000000000240000000000000000000024000000
#05415:0013001300000000
#05418:13130000
#0541b:0013
#05718:000000130000000000000000000000000000000013000013
#05715:0000130000000013
#05712:13
#0571b:0000001300000000
#00218:130000000000000000000000000000000013000000000000
#00215:0013000013000013
#00212:000000000000000013000000000000000013000000000000
#0021b:0013000013000013
#0031b:000000001300001300000000
#00316:001300
#00312:000000130000000000000013000000000000130000000000
#00318:000000130000000000000000000000000013000013000000
#00315:130000000000000000000000000000130000000000130013
#00918:000000130000000000000000000000000000000013000000
#00915:130000000000130000000000130000000000000000130013
#00912:0000001300000000
#0091b:0000001300000000
#03018:000000000013000000000013000000000000000013000000
#03015:0000001313000013
#03012:00130000
#0301b:001300
#00518:000000130000000000000000000000000000000013000000
#00515:130000000000000000000000130000000000000000130013
#00512:00130000
#0051b:0000001300000000
#04512:00000000000000130000000000000000
#03118:130000000000002400000000
#03112:1300000000240000
#0311a:000000000000000000000024000000000000000000000000
#03114:0024
#00112:1313
#0011b:000000130000000000000000000000000013000000000000
#00115:000000130000000000000000000000000013000000130013
#00118:000013130013
#02415:0013130000001313
#02412:000000000000000000000013000000130000000000000000
#0241b:000000000000000000130000000000000013000000000000
#02418:260000000013000000000000130000000000000000000000
#02410:41
#02518:2613130000001300
#0251b:000000000000000000000013000000130000000013000000
#02512:000000000000000000130000000000000013000000000000
#02515:000013000013000000000000130000000000000000130000
#0291b:13130000
#02918:0000001313000000
#02912:131300
#02915:000000000013000000000013000000000000000000333333
#03312:1300001600000016
#03318:0016000013160000
#0331b:13
#03315:00130013
#03615:000000130000000000000000000000130013000000130000
#03618:00131300
#03612:240000000000000000130013000000000000000000000000
#0361b:00000013
#0361a:24
#0361f:21
#03712:2413000000000000
#03718:000000000013000000000000130000130000130013000000
#0371b:0000001300000000
#03715:000000000000130000000013000013000013000000130000
#0371a:24
#03710:41
#03812:2413000000000000
#03815:000000000013000000000000130013000000130000000000
#0381b:0000001300000013
#03818:000000000000130000000013000000130013000000000000
#0381a:24
#04218:000000130000130000130000000000000013000013000000
#04215:000000000013000013000000000000130000130000130000
#04212:260000000000000000000026000000000000000000000000
#04318:130000000000000000000000000000130000000013000000
#04315:000000000000000000000013000000000000000000130013
#0431b:0013
#04312:000000000000001300000000
#04018:0013130000001313
#0401b:000000000000000000000013000000130000000000000000
#04012:240000000000000000130000000000000013000000000000
#04015:000000000013000000000000130000000000000000000000
#0401a:24
#04115:0013130000001300
#04112:240000000000000000000013000000130000000013000000
#0411b:000000000000000000130000000000000013000000000000
#04118:000013000013000000000000130000000000000000130000
#0411a:24
#0461b:0013000000131300
#04618:000000000000130000000013000000000000000000130000
#04612:000000000000000000130000000000000000000013000000
#04615:000000000013000000000000130000000013000000000000
#04812:0013000000131300
#04815:000000000000130000000013000000000000000000130000
#0481b:000000000000000000130000000000000000000013000000
#04818:000000000013000000000000130000000013000000000000
#04810:41
#05115:1300000000130000
#05112:0013
#05118:000000000000000000000013000000000000000000000000
#0511b:000000000000001300000000
#0521b:1300000013000013
#05212:000000130000000000000000000000000013000000000000
#05218:000000130000000000000000000000000013000000000000
#05215:000000000000000013000000130000000000000000130000
#05312:1313
#0531b:000000130000000000000000000000000013000000000000
#05315:000000130000000000000000000000000013000000130013
#05318:000013130013
#05518:000000130000000000130000000000000000000013000000
#05515:130000000000130000000000000000000000000000130013
#05512:0013
#05615:0013000000000000
#05618:00130000
#0561b:13
#05612:0000001300000000
#0471b:00000000000000130000000000000000
#04912:00000000000000130000000000000000
#01912:2424
#01916:0024002400000000
#0191a:00240024
#0231a:2424
#02316:0024002400000000
#02312:00240024
#03912:2424
#03916:0024002400000000
#0391a:00240024
#00458:0063
#00655:00000053
#00858:0063
#01258:0053
#01252:0053
#0145a:000000000014000000000000000000000000000000000000
#01452:000000000000000000000000000000000014000000000000
#02855:0063
#03252:0016000000160000
#03258:0000001600000016
#01358:53
#01352:53
#01658:0053
#04455:0000000000000053
#04552:00000000000000230000000000000000
#0545b:0063
#01952:0014
#0195a:00000014
#03158:63
#03154:0014
#03152:6300000000140000
#02755:53
#00555:0053
#00955:0053
#0235a:0014
#02352:00000014
#02958:0053
#03055:0063
#03358:0016000000160000
#03352:0000001600000016
#04358:63
#03952:0014
#0395a:00000014
#05155:53
#05552:0053
#04658:0000000000000063
#0475b:00000000000000230000000000000000
#04855:0000000000000053
#04952:00000000000000230000000000000000
#05054:0000001400000000
#05058:0000000000000014
#004380:0013
#0043b0:00000023
#005350:0013
#005320:00000023
#006350:00000013
#006320:0000000000000023
#008380:0013
#0083b0:00000023
#009350:0013
#009320:00000023
#010320:000000000013
#011320:23
#0113b0:000000000000001300230000
#012380:0013
#0123b0:0000000000230000
#012321:0013
#012351:0000000000230000
#013381:13
#0133b1:00230000
#013320:13
#013350:00230000
#0143a0:140000000024000000000000000000000000000000000000
#014320:000000000000000000000000140000000024000000000000
#016380:0013
#0163b0:0000000000230000
#018380:1323000000000000
#018350:0000132300000000
#027350:13
#027320:000000330023000000000000000000000000000000000000
#027370:00000000000000000000000000000000000000000000000000000000000000000000000000000000000000000000000014000000000000542400000000000000
#027380:00000000000000000000000000000000000000000000000000000000000000000000000000000000000000000000000000550056005500000000000000000000
#027350:0000000000000000000000000000000000000000000000000055005500000000
#027340:00000000000000000000000000560000
#028350:0013
#028320:000000000000000000000000000000000023000000000000
#029380:0013
#0293b0:000000000000000000000000000000000023000000000000
#029350:000000000000000000000000000000000000000013333333
#030320:23
#030350:0013
#030320:000000000000000000000000000000000023000000000000
#031380:13
#0313b0:000000000023000000000000000000000000000000000000
#031321:13
#031351:000000000023000000000000000000000000000000000000
#043381:13
#0433b1:000000330023000000000000000000000000000000000000
#044351:0000000000000013
#045321:00000000000000530000000000000000
#046351:23
#046381:0000000000000013
#0473b1:00000000000000530000000000000000
#048381:23
#048351:0000000000000013
#049321:00000000000000530000000000000000
#050351:23
#051351:13
#051321:000000330023000000000000000000000000000000000000
#051371:00000000000000000000000000000000000000000000000000000000000000000000000000000000000000000000000014000000000000542400000000000000
#051351:00000000000000000000000000000000000000000000000000000000000000000000000000000000000000000000000000550000005500000000000000000000
#051381:0000000000000000000000000000000000000000000000000055565500000000
#051341:00000000000000000000000000000000000000000000000000000000000000000000000000000000000000000000000000000056000000000000000000000000
#0543b1:0013
#054381:00000023
#055321:0013
#055351:00000023
#056381:00001323
#057351:00001323
