This file was generated by Ched 2.6.3.0.
#TITLE ""
#ARTIST ""
#DESIGNER ""
#DIFFICULTY 0
#PLAYLEVEL
#SONGID ""
#WAVE ""
#WAVEOFFSET 0
#JACKET ""
#REQUEST "ticks_per_beat 480"
#00002: 4
#BPM01: 105
#00008: 01
#TIL00: ""
#HISPEED 00
#MEASUREHS 00
#0001c:1200000000000012
#00016:000000000000000012000000000000000000000000000000000000000000000000000000000000000000000000000000000000120000000000000000000000000000000000000000000000000000000000000000120000000000000000000000
#00018:000000120000120012000000000000000012000000000000
#0001a:0012
#00012:120000000000120000000000000000000012000000000000
#00014:0012000000000000
#00415:000000130000001600000000000000000000000000000000
#00418:000000000000130000130000000000000016000000000000
#00412:000000131c000000
#0041b:0000000000000013
#0041a:000000000000000000000014000000000000000000000000
#00410:41
#00616:000000180000180000000000000000180013000000000000
#0061b:130000000013000000000000000000000000130000000000
#00612:0000001818000013
#00617:000000000000000000000013000000000000000000000000
#0071a:140000140000000000000000140000000014000000000000
#00716:001800000000000000180000
#00712:140000000014180000000000140018140000000013000000
#00718:000000000013
#00715:000000000000000000000000000000000000000000130013
#00818:13130000
#00815:0013000000000000
#0081b:0000001300000000
#00812:1300000000000000001300141c0000000016000000130000
#01012:130000130000000000130000130000000000001300000000
#01016:00140000
#01017:0013
#01015:000000000000000013000000000000130000000013000000
#01018:000013000000000000000000000000000013000000000000
#0101b:000000130000000000130000000000000000000013000000
#01010:41
#01112:130000000000130000130000000013000000000000160000
#0111b:000000130000000000000013000000000000000000000000
#01117:000000000013000000000000000013000000000000000000
#01116:001300000000000000130000
#01118:000000000000000000130000000000000000000016000000
#01115:000000000000000000000013000000000000000000000016
#01218:1600000016131600
#01212:0013001616000016
#0121b:00130000
#01215:000016000016000016000000000000000016000016000000
#01315:1300130016160000
#01318:000000000000000000160000000000000016000000130013
#01312:000000000000000016000013000000000000160000000000
#0131b:130000000000001300000000
#01317:0013000000000000
#01418:001300
#01415:000000000000000000130013000000000000000000000000
#01412:14
#0141a:0014
#01515:000000000000000000130000000000000000000013000000
#0151b:0013
#01518:0000000000130000
#01512:1c0000000000000000000000000000001300000000130013
#01619:0013000000000000
#01612:00131900
#0161b:000000000000000000000000130000000013000000000013
#01614:0000001300000000
#01617:000013000000000000000000000000130000000000000000
#01616:000000000000000013000000000000000013000000000000
#01610:41
#01712:130000000000000000000000000013180013000000000000
#01716:001300000000180000000000
#0171b:000000000000130000000000000000000013000000000000
#01714:0013000000000000
#01719:0000001300000000
#01717:001300
#01812:000000000000130000000000000013000013000000000000
#01817:001300000000001300000000
#0181b:130000000000000000000000130000000013000000000000
#01816:000000000000000013000018130000000000000000000000
#01819:0013000000000000
#01814:0000001300000000
#0191b:000000000000132300000000
#01912:00002813
#01917:22
#01916:0024000000002800
#01915:00260000
#01914:000000000000000000280000000023000000000000000000
#02015:000000130016000000000016000000130016000000000000
#02012:2c131313
#02018:0000001300000013
#0201b:00131313
#02118:000000130000000000000000000000130000000016000000
#02112:2c0000000019000000000000130016000000130000000000
#02115:000000000000130000130016000000000016000000130000
#0211b:00131300
#02215:000000130000130000000016000016000000000000000000
#02212:2c0000000019000000000000130000130019000000130000
#02218:0000001300000013
#0221b:00131313
#02415:000000140019000000000000000000140019000000130000
#02412:2c0000000000130000000019000000000000130000000000
#02417:0000001400000000
#0241b:00001313
#02410:41
#02512:2c0000000019130000000018130000000019000000000000
#02517:0000001300000000
#02516:000000000000001800000000
#0251b:0013000000130000
#02515:001900000000000000131900
#02518:0000000000000013
#02615:000000130019000013130000000000000000000000000000
#02618:000000000000000000000000000000130000000013130000
#02612:230000000000130000000023000000130019000000000000
#0261b:230000130000000000000023000000000000130000000000
#0271a:14
#0271b:000000000013000000000000000000000000000000000000
#02715:000000000013000000000000000000000000000000000000
#02712:14
#02812:1c13
#0281b:000000000000000000000000130000000000000013130000
#0281f:11
#03212:1c16001613160016
#03218:000000000000000000000000000000000013000013000000
#0321b:0000000000000013
#03215:00130013
#03315:000000000000000000000000000000000013000000000000
#03312:1c0000000000000000000000000000000000000000343434
#03318:0016131600161300
#0331b:0013
#0331a:000000000014
#03517:1212121212000000
#03512:0000002c
#04415:000000130016130000000016000000130000000000000000
#04412:000000000000161c
#04418:130000000000000000130000130000000016000016000000
#05012:000000130000000000260000000000130000000026000000
#05018:000000000013000026000000000000000000130000260000
#05015:000000000000130000000000000000000013000000000000
#0501b:0013000000130000
#05415:0013000000000000
#05418:00130000
#0541b:0000001300000000
#0541a:0014
#0561a:12
#05618:0012000000000000
#05616:00120000
#05614:0000001200000000
#05612:0012
#05716:000000120000000000000000000000000000000014140014
#05714:12
#05718:00120000
#0571a:0000001200000000
#0571c:0012
#00216:000000000000000013000000130000000000000000000000000000000000000000000000000000000000000000000000000000130000000000000000000000000000000000000000000000000000000013000000130000000000000000000000
#0021b:0013130013000013
#00217:000000000000000000000000000000000013000000000000
#00212:000000000000130013000000000000000013000000000000
#00515:130000000000131600130000000000000000000000000000
#00518:000000130000000000000000000000000000000000130013
#0051b:000000000000000000130000000000000000000013000000
#00512:0000000000000000000000141c0000000000160000000000
#00915:130000000000130000000000000000000000000000130013
#0091b:0013001300000000
#00912:0000000000000000001300001c0000000000000013000000
#00918:00000016
#0091a:000000000000000000000014000000000000000000000000
#02312:00001328
#0231b:00000013
#02316:0024000028000000
#02317:22
#02315:00260000
#02314:0000002800000000
#02912:1c0000130014
#0291b:0013
#0291a:000000000000000000000000000000000000000000343434
#03018:000000000013
#0301b:0000000000000013
#03016:000000000000000000000000000000000013000000000000
#03017:00131300
#03019:0000001300000000
#03012:1400000013000016
#0311c:00000012
#03116:000000000000000000000000000000000000001200000000
#0311a:000000000012
#03114:0000000000000012
#03118:000000000000000000000026000000000000000000001200
#03112:1300000000000000000000002c00262c0000000000000012
#0311b:000000000013000000000000000000000000000000000000
#03612:2613130000001300
#03618:260000000000000000000013000000000000000000000000
#03615:000000000013000000000000000000130013000000000000
#03616:0000000000000013
#0361b:0000001313000013
#0361f:21
#03715:000000130013000000000000000016000016000016000000
#03718:260000000000000000130013000000000000000000000000
#0371b:0000000013130013
#03712:26130013
#03710:41
#03815:000000130013000000000000000000000016000016000000
#03818:260000000000000000130013000000160000000000160000
#03812:260000130000001600160000
#0381b:0013000013000000
#0391b:0013
#03912:00002813
#03914:28
#03916:0024002400002800
#03917:00220000
#0421b:230000000000130000130023000000000000000000000000
#04218:000000000000000013000000000000130000000000000000
#04215:000000130000000000000000000000000000000013000000
#04212:230000000000000000000023000000000000130000130000
#04512:000000000000000000000000000000000000001300000000
#04518:00130000
#04517:0013
#04519:000000000000001300000000
#0451b:000000000000000000000000000000000013000013130000
#0481b:0013000013000000
#04812:0000000000181300000000000000000000181300001c0000
#04815:0000001300000000
#04816:000000000000000000000018130000000000000018000000
#04817:0000130000130000
#04810:41
#04918:000000160000000000160000000013130000130000000000
#0491b:000000000000000000000000130000000000000013130000
#0491b:000000000000000000000000000000000000000013130000
#04912:000000000000000000000000000000000000001300000000
#0551b:13
#05516:000000000000000000000000000000000000000014140014
#05518:0013000000000000
#05515:00130000
#05512:0000001314000000
#00112:12
#00118:000000000000000012000000000000000000000000000000000000000000000000000000000000000000000000000000000000120000000000000000000000000000000000000000000000000000000000000000000000000000000000000000
#00116:000000120000120012000000000000000012000000000000
#0011c:120000000000120000000000000000000012000000000000
#0011a:0012000000000000
#00114:0012
#00318:13
#00317:000013130000000000000000000000000000130000000000
#00312:1313130000000000
#0031b:000000131300000000000000
#04018:260000130013000000000000000000130013000000000000
#04015:000000000000000000000013000000000000000000000000
#04017:0000000000000013
#0401b:00130013
#04012:2600001313000013
#04115:000000130013000000130000000000000019000000130000
#04112:260000000000130000000000000018130000000019000000
#04116:000000000000000000000018000000000000000000000000
#0411b:0013000013000000
#04118:261300130000000000130000
#04312:140000000013000000000000000000000000000000000000
#04318:000000000013000000000000000000000000000013000000
#0431b:000000000000000000000000000000000000000000130013
#0431a:14
#04618:0013130000131600
#04612:0000000000001300000000000000000000160000161c0000
#04615:000000000016000000130016130000000000000000000000
#0461b:0013
#0471b:000000000000000000000000000000000000001300000000
#04715:000000000000130000130000000013130000130000000000
#04712:000013130000000000000000130000000000000013130000
#05112:140000000013000000000000000000000000000000000000
#05118:000000000013000000000000000000000000000000000000
#0511a:14
#05212:1200000000000012
#05218:000000000000000012000000000000000000000000000000000000000000000000000000000000000000000000000000000000120000000000000000000000000000000000000000000000000000000000000000120000000000000000000000
#05216:000000120000120012000000000000000012000000000000
#0521c:120000000000120000000000000000000012000000000000
#0521a:0012000000000000
#05214:0012
#0531c:12
#05316:000000000000000012000000000000000000000000000000000000000000000000000000000000000000000000000000000000120000000000000000000000000000000000000000000000000000000000000000000000000000000000000000
#05318:000000120000120012000000000000000012000000000000
#05312:120000000000120000000000000000000012000000000000
#05314:0012000000000000
#0531a:0012
#0341a:14
#03412:000000160000160000001600
#03416:0000001600000000
#03415:000000160000000000000000000000000013000000000000
#03418:0000000000000016
#0341b:0013
#0065b:00000053
#01252:0013001656000000
#01258:16
#0125b:00130000
#01358:0000001600000000
#01355:0000000016160000
#01352:00000016
#0135b:63
#01357:0023000000000000
#01452:54
#01457:000000000014000000000000000000000000000000000000
#0145a:0064
#01455:000000000000000000000000000000000014000000000000
#0075a:0014000000000000
#00752:0000180000140000
#00756:00000018
#03252:0016001600160016
#03258:0046
#03358:0016001600160000
#03352:0036
#01652:0069
#04452:000000000000005c
#04552:000000000000000000000000000000000000002300000000
#04958:0016001600000000
#04952:000000000000000000000000000000000000002300000000
#0545a:0064
#01952:0018
#01956:00000018
#02356:0018
#02352:00000018
#03152:6300000000000000000000001c00161c0000000000000000
#03158:000000000000000000000016000000000000000000000000
#03952:0018
#03956:00000018
#0275a:54
#02752:64
#02052:1c000013
#0205b:0013
#02252:1c00000000130000
#0225b:00001313
#02452:1c130013
#0245b:0013
#02552:1c13
#0255b:0000000000130000
#02555:00000013
#02558:0000000000000013
#01556:000000000014000000000000000000000000000000000000
#0155b:0013
#01552:5c0013
#00058:000000000000000000000000000000000012000000000000
#0005c:0000000000000012
#00156:000000000000000000000000000000000012000000000000
#00452:005c
#00552:005c
#00852:006c
#00952:006c
#0105b:000000000000000000130000000000000000000053000000
#01052:0013000000000000
#01157:000000000000005300000000
#02158:0000000000130000
#02152:1c000013
#02155:0000000000000013
#0215b:0013
#02852:0053
#0285b:0053
#03057:0053
#0305b:0000000000000053
#0295b:0063
#02952:0063
#0375b:0000000000130013
#03752:36003313
#03758:46
#0365b:00000043
#03652:36
#03658:46
#03655:0043
#03852:36003316
#03858:4600000000160016
#04052:36000033
#04058:4633
#04152:3600000000130000
#04158:46000013
#0415b:0013
#04155:0000000000000013
#04652:000000000000006c
#0475b:000000000000000000000000000000000000002300000000
#04852:000000000000005c
#05052:0000003600000000
#05058:0000000000000046
#05252:0000000000000012
#05256:000000000000000000000000000000000012000000000000
#05358:000000000000000000000000000000000012000000000000
#05552:0054
#05652:0052
#0575c:0062
#01756:0018
#01752:0000000000180000
#0435a:54
#04352:64
#0515a:54
#05152:64
#0345b:0063
#0013b0:000000000013
#001380:000000000000000000000000000000000000000000330033
#0023b0:23
#001351:000000000013
#001321:0000000000000023
#001321:000000000000000000000000000000000000000000000013
#002351:23
#003321:000000000000000000000013000000330000230000000000
#003361:000000000000000000000000000033000033000000000000
#003370:000000000000000000000013000000000000000000000000
#0033b0:000000000000002300000000
#003370:0000000000130000
#0033b0:000000000000000000000000000000000023000000000000
#003321:000000000013
#003351:000000000000000000000000000000000000000000330033
#004321:23
#003380:000000000013
#0033b0:0000000000000023
#0033b0:000000000000000000000000000000000000000000000013
#004380:23
#004320:000000001c005323
#005320:001c
#0053b0:00000023
#005350:000000000013
#005320:000000000000000000000000000000000000000000330033
#006350:23
#0063b0:00000013
#006370:0000000000000023
#008320:001c
#0083b0:0000000000005323
#009320:00001c23
#009380:000000000013
#0093b0:000000000000000000000000000000000000000000330033
#010380:23
#0103b0:000000000013
#011380:23
#011370:000000000000001300000000
#0113b0:00000023
#012320:0016
#012350:0000000000230000
#012320:000000000000000000000000000000000013230000000000
#0123b0:000000000000000000000000000000000000000013230000
#0133b0:13230000
#013370:0053000000000000
#014320:14
#014370:000000000024000000000000000000000000000000000000
#0143a0:0014
#014350:000000000000000000000000000000000024000000000000
#015320:1c
#015360:000000000024000000000000000000000000000000000000
#015380:000000000000000013230000000000000000000000000000
#015350:000000000000000000000000000013230000000000000000
#0153b0:000000000013
#015380:000000000000000000000000000000000000000000330033
#0163b0:23
#016321:1323000000000000
#0163b1:0000132300000000
#016321:0000000019230000
#0173b1:1323000000000000
#017321:0000132300000000
#018321:1323000000000000
#0183b1:0000132300000000
#026381:000000000000000016260000000000000000000000000000
#026321:000000000000000000000000000000000000000016260000
#0273a1:14
#027381:0022000000000000
#027320:14
#027360:0022000000000000
#027320:000000000000000000000014000000000000000000000000
#0273a0:0000000000240000
#0273a1:000000000000000000000014000000000000000000000000
#027321:0000000000240000
#027361:00000014
#027371:00000000000000000000000000000000000000000000000000000000000000000000000000000000000000000000000000550056005500522200000000000000
#027341:0000000000000000000000000000000000000000000000000055005500000000
#027331:00000000000000000000000000560000
#028351:000000000013000000000000000000000000000000000000
#028321:00230000
#0283b0:00130000
#028380:002300
#028351:001300
#028321:0000002300000000
#0283b0:0000001300000000
#028380:000000000000000000000023000000000000000000000000
#028351:000000000000000000000013000000000023000000000000
#028321:0033
#0283b0:0013
#028380:000000000000000000000000000000000023000000000000
#028360:000000000013
#028320:0000000000000023
#029380:000000000013000000000000000000000000000000000000
#0293b0:00230000
#029321:00130000
#029351:002300
#029380:001300
#0293b0:0000002300000000
#029321:0000001300000000
#029351:000000000000000000000023000000000000000000000000
#029380:000000000000000000000013000000000023000000000000
#0293b0:0033
#029321:0013
#029351:000000000000000000000000000000000023000000000000
#0293a1:000000000000000000000000000000000000000014343434
#030361:24
#030351:000000000013000000000000000000000000000000000000
#030321:00230000
#030371:001300
#030341:0000002300000000
#0303a1:000000000000000000000013000000000000000000000000
#030371:0033
#0303b1:000000000000000000000000000000000023000000000000
#0303b1:0000000000000013
#031371:23
#031320:13
#031360:000000000023000000000000000000000000000000000000
#032380:000000000000000000000000000000000000000000000000000000000000000000000000000000000000000000000000000000000000000000000000000000000000000000000000000000000000000000000000000000000000000000000000000000000000000000000000000000000000000000000000000000000000000000000000000000000000000000000000000000000000000000000000000000000000000000000000000000000000000000000000000000000000000000000000000000000000000000000000000000000000000000000000000000000000000000000000000000000000000000000000000000000000000000000000000000000000000000000000000000000000000000000000000000000000000000000000000000000000000000000000000000000000000000000000000000000000000000000000000000000000000000000000000000000000000000000000000000000000000000000000000000000000000000000000000000000000000000000000000000000000000000000000000000001300000000000000000000000000000000000000000000000000000000000000000000000000000053560000000000000000000000000000000000000000000000000000000000000000000000000000360000000000000000000000000000000000000000000000000000000000000000000000000000560000000000000000000000000000000000000000000000000000000000000000000000000000000000000000000000000000000000000000000000000000000000000000000000000000000000000000000000000000000000000000000000000000000000000000000000000000000000000000000000003300000000000000000000000000000000000000000000000000000000000000000000000000000053560000000000000000000000000000000000000000000000000000000000000000000000000000360000000000000000000000000000000000000000000000000000000000000000000000000000560000000000000000000000000000000000000000000000000000000000000000000000000000000000000000000000000000000000000000000000000000000000000000000000000000000000000000000000000000000000000000000000000000000000000000000000000000000000000000000000003300000000000000000000000000000000000000000000000000000000005356000000000000000000000000000000000000000000000000000000000000000000000000000000000000000000000000260000000000000000000000000000000000000000000000000000000000000000000000000000000000000000000000000000000000000000000000000000000000000000000000000000000000000000000000000000000000000000000000000000000000000000000000000000000000000000000000000000000000000000000000000000000000000000000000000000000000000000000000000000000000000000000000000000000000000000000000000000000000000000000000000000000000000000000000000000000000000000000000000000000000000000000000000000000000000000000000000000000000000000000000000000000000000000000000000000000000000000000000000000000000000000000000000000000000000000000000000000000000000000000000000000000000000000000000000000000000000000000000000000000000000000000000000000000000000000000000000000000000000000000000000000000000000000000000000000000000000000000000000000000000000000000000000000000000000000000000000000000000000000000000000000000000000000000000000000000000000000000000000000000000000000000000000000000000000000000000000000000000000000000000000000000000000000000000000000000000000000000000000000000000000000000000000000000000000000000000000000000000000000000000000000000000000000000000000000000000000000000000000000000000000000000000000000000000000000000000000000000000000000000000000000000000000000000000000000000000000000000000000000000000000000000000000000000000000000000000000000000000000000000000000000000000000000000000000000000000000000000000000000000000000000000000000000000000000000000000000000000000000000000000000000000000000000000000000000000000000000000000000000000000000000000000000000000000000000000000000000000000000000000000000000000000000000000000000000000000000000000000000000000000000000000000000000000000000000000000000000000000000000000000000000000000000000000000000000000000000000000000000000000000000000000000000000000000000000000000000000000000000000000000000000000000000000000000000000000000000000000000000000000000000000000000000000000000000000000000
#0323b0:000000000000000000000000005300000000005300000000000000000000000000000000000000000000000000000000
#033350:000000000000000000000000000000000000000000000000000000000000000000000000000000001300000053000000000000000000000000000000000000003300000053000000000000000000000000000000000000003300005300000000000000000000000000000000000000000000000000000000000000000000000000000000000000000000000000000000000000000000000000000000000000000000000000000000000000000000000000000000000000000000000000000000
#033320:000000000000000000000000000000000000000000000000000000000000000000000000000000000000000000000000000000000000000000000000000000000000000000000000000000000000000000000000000000000000000000000000000000000000000000000000000000000000000000000000000000000000000000000000000000000000000000000000000000000000000000000000000000000000000000000000000000000000000000000000000000000000000000000000000000000000000000000000000000000000000000000000000000000000000000000000000000000000000000000000000000000000000000000000000000000000000000000000000000000000000000000000000000000000000000000000000000000000000000000000000000000000000000000000000000000000000000000000000000000000000000000000000000000000000000000000000000000000000000000000000000000000000000000000000000000000000000000000000000000000000000000000000000000000000000000000000000000000000000000000000000000000000000000000000000000000000000560000000000000000000000000000000000000000000000000000000000000000000000000000360000000000000000000000000000000000000000000000000000000000000000000000000000565300000000000000000000000000000000000000000000000000000000000000000000000000000000000000000000000000000000000000000000000000000000000000000000000000000000000000000000000000000000000000000000000000000000000000000000000000000000000000000000000000000000000000000000000000000000000000000000000000000000000000000000000000000000560000000000000000000000000000000000000000000000000000000000000000000000000000360000000000000000000000000000000000000000000000000000000000000000000000000000565300000000000000000000000000000000000000000000000000000000000000000000000000000000000000000000000000000000000000000000000000000000000000000000000000000000000000000000000000000000000000000000000000000000000000000000000000000000000000000000000000000000000000000000000000000000000000000000000000000000000056000000000000000000000000000000000000000000000000000000000000000000000000000000000000000000000000260000000000000000000000000000000000000000000000000000000000000000000000000000000000000000000000000000000000000000000000000000000000000000000000000000000000000000000000000000000000000000000000000000000000000000000000000000000000000000000000000000000000000000000000000000000000000000000000000000000000000000000000000000000000000000000000000000000000000000000000000000000000000000000000000000000000000000000000000000000000000000000000000000000000000000000000000000000000000000000000000000000000000000000000000000000000000000000000000000000000000000000000000000000000000000000000000000000000000000000000000000000000000000000000000000000000000000000000000000000000000000000000000000000000000000000000000000000000000000000000000000000000000000000000000000000000000000000000000000000000000000000000000000000000000000000000000000000000000000000000000000000000000000000000000000000000000000000000000000000000000000000000000000000000000000000000000000000000000000000000000000000000000000000000000000000000000000000000000000000000000000000000000000000000000000000000000000000000000000000000000000000000000000000000000000000000000000000000000000000000000000000000000000000000000000000000000000000000000000000000000000000000000000000000000000000000000000000000000000000000000000000000000000000000000000000000000000000000000000000000000000000000000000000000000000000000000000000000000000000000000000000000000000000000000000000000000000000000000000000000000000000000000000000000000000000000000000000000000000000000000000000000000000000000000000000000000000000000000000000000000000000000000000000000000000000000000000000000000000000000000000000000000000000000000000000000000000000000000000000000000000000000000000000000000000000000000000000000000000000000000000000000000000000000000000000000000000000000000000000000000000000000000000000000000000000000000000000000000000000000000000000000000000000000000000000000000000000000000000000000
#033320:000000000000000000000000000000000000000014343434
#034360:24
#034380:000000000013000000000000000000000000000000000000
#0343b0:00230000
#034350:001300
#034320:0000002300000000
#034380:000000000000000000000013000000000023000000000000
#0343b0:0033
#036380:0013230000000000
#0363b0:000000005353000000000000000000000000000000000000
#036350:0000001323000000
#036320:000000000000000000005353000000000000000000000000
#036380:000000000000000000000000000000130053000000000000
#0363b0:00000023
#037380:0013230000000000
#0373b0:000000005353000000000000000000000000000000000000
#037350:000000000000000000130053000000000000000000000000
#037320:0023
#038380:000000000013000000000000000000000000000000000000
#0383b0:00230000
#038350:000000000000000000130053000000000000000000000000
#038320:0023
#040350:0013230000000000
#040320:000000005353000000000000000000000000000000000000
#040380:0000001323000000
#0403b0:000000000000000000005353000000000000000000000000
#040350:000000000000000000000000000000130053000000000000
#040320:00000023
#042380:000000130023000000000000000000000000000000000000
#042351:000000000013000000000000000000000000000000000000
#042321:00230000
#042321:001300
#042351:0000002300000000
#042351:000000000000000000000000000000130023000000000000
#042380:000000000000000000000000000000000013000000000000
#0423b0:00000023
#0423b0:000000000013
#042380:0000000000000023
#0433a0:14
#043380:0022000000000000
#043321:14
#043361:0022000000000000
#0433a1:000000000000000000000014000000000000000000000000
#043321:0000000000240000
#043320:000000000000000000000014000000000000000000000000
#0433a0:0000000000240000
#043350:000000000013
#043320:000000000000000000000000000000000000000000330033
#044350:23
#044320:000000000000001c
#045320:000000000053000000000000000000000000005300000000
#046320:2c
#0453b1:000013230000000000000000000000000000000000000000
#045381:000000000000000013230000000000000000000000000000
#046320:000000000000001c
#0473b0:000000000053000000000000000000000000005300000000
#048320:2c
#048320:000000000000001c
#049320:000000000053000000000000000000000000005300000000
#050320:2c
#0513a0:14
#051380:0022000000000000
#051321:14
#051361:0022000000000000
#0513a1:000000000000000000000014000000000000000000000000
#051321:0000000000240000
#051320:000000000000000000000014000000000000000000000000
#0513a0:0000000000240000
#051360:00000014
#051340:00000000000000000000000000000000000000000000000000000000000000000000000000000000000000000000000000550000005500000000000000000000
#051370:00000000000000000000000000000000000000000000000000000000000000000000000000000000000000000000000000005500560055522200000000000000
#051330:00000000000000000000000000000000000000000000000000000000000000000000000000000000000000000000000000000056000000000000000000000000
#053320:000000000013
#053350:000000000000000000000000000000000000000000330033
#054320:23
#053381:000000000013
#0533b1:0000000000000023
#0533b1:000000000000000000000000000000000000000000000013
#054381:23
#0543a1:0014
#054361:00000024
#055321:0014
#055361:00000024
#056321:0012
#056371:00000022
#0573c1:0012
#057371:00000022
