This file was generated by Ched 2.6.2.0.
#TITLE ""
#ARTIST ""
#DESIGNER ""
#DIFFICULTY 0
#PLAYLEVEL
#SONGID ""
#WAVE ""
#WAVEOFFSET 0
#JACKET ""
#REQUEST "ticks_per_beat 480"
#00002: 4
#BPM01: 105
#00008: 01
#TIL00: ""
#HISPEED 00
#MEASUREHS 00
#00019:1414
#00013:00140000
#00113:1414
#00119:00140000
#00418:14
#00414:00140000
#00410:41
#00618:1414
#00612:00140014
#00718:1600160000160000
#00712:0016000016001600
#01219:14140014
#01213:1414
#01618:14141414
#01610:41
#01714:14141414
#0201a:24141414
#02014:0014000000140000
#02112:14141414
#02118:0014000000140000
#0221a:14
#02212:0014
#02214:0014000000001400
#02218:0000140000140000
#02412:14141414
#02418:0014000000140000
#02410:41
#0251a:14141414
#02514:0014000000140000
#02613:1414
#02619:1414
#0281a:14
#02812:00140000
#02818:00001414
#02814:0000000000140000
#0281f:11
#03112:14
#0311a:00140000
#03114:0024
#03118:0000000000240000
#0381a:1400000000140000
#03812:0014000014000000
#03818:00140000
#03814:00000014
#04418:0014
#0441a:14
#04414:00140000
#04412:00000014
#0021a:1414
#00214:00140000
#00312:1414
#00318:00140000
#00514:14
#00518:00140000
#00818:14
#00812:00140000
#00914:14
#0091a:00140000
#0101a:1414
#01014:00140014
#01010:41
#01118:1600160000160000
#01112:0016000016001600
#01313:14140014
#01319:1414
#0151a:14
#01514:00140000
#01518:0014
#01512:00000014
#0181a:14140000
#01812:00001414
#01912:14
#0191a:14
#02912:14
#0291a:00140000
#02914:00001414
#02918:0000000000140000
#0301a:14
#03012:00140000
#03018:00001414
#03014:0000000000140000
#03513:00001414
#03519:00001414
#03618:00001414
#03614:0014000000000000
#0361a:24140000
#03612:0000000000140000
#0361f:21
#03714:00001414
#03718:0014000000000000
#03712:14140000
#0371a:0000000000140000
#03710:41
#04012:14000014
#04014:00141400
#04018:0014000000000000
#0401a:0000000000140000
#0411a:14000014
#04118:00141400
#04114:0014000000000000
#04112:0000000000140000
#04213:1414
#04219:1414
#04518:14
#0451a:0000001400000000
#04614:0014
#04612:14
#04618:00140000
#0461a:00000014
#04818:0014
#0481a:14
#04814:00140000
#04812:00000014
#04810:41
#05013:1414
#05019:1414
#05219:1414
#05213:00140000
#05313:1414
#05319:00140000
#05418:14
#05414:00140000
#05618:13
#05615:00130000
#05514:14
#05518:00140000
#05715:13
#05718:00130000
#04714:14
#04712:0000001400000000
#04918:14
#0491a:0000001400000000
#02318:0034343400000000
#03214:0034343400000000
#03318:0034343400000000
#03414:0034343434343434
#03915:0036363600000000
#0195a:54
#01952:54
#01958:00000014
#01954:00000014
#02358:00000014
#03553:00000014
#03559:00000014
#03955:00000016
#04558:64
#0455a:0000002400000000
#03254:00000014
#03358:00000014
#04754:54
#04752:0000002400000000
#04958:64
#0495a:0000002400000000
#004380:00001424
#005340:00001424
#008380:0014
#0083a0:00000024
#009340:0014
#009320:00000024
#014380:14240000
#014340:00001424
#0193a0:14
#019380:00003424
#019321:14
#019341:00003424
#0233a1:14
#023381:0034343434002400
#027321:1424
#027341:00540000
#0273a0:1424
#027380:00540000
#032320:14
#032340:0034343434002400
#0333a0:14
#033380:0034343434002400
#034320:14
#034340:0034343434343434
#035360:24
#039380:16
#039350:0036363636002600
#043320:1424
#043340:00540000
#0433a1:1424
#043381:00540000
#045381:14000024
#0453a1:0000005400000000
#047341:14000024
#047321:0000005400000000
#049381:14000024
#0493a1:0000005400000000
#051321:1424
#051341:00540000
#0513a0:1424
#051380:00540000
#054380:00001424
#055340:00001424
#056380:00001323
#057350:000000000000000000000000130000000000330033000023
