This file was generated by Ched 2.6.2.0.
#TITLE ""
#ARTIST ""
#DESIGNER ""
#DIFFICULTY 0
#PLAYLEVEL
#SONGID ""
#WAVE ""
#WAVEOFFSET 0
#JACKET ""
#REQUEST "ticks_per_beat 480"
#00002: 4
#BPM01: 145
#00008: 01
#TIL00: ""
#HISPEED 00
#MEASUREHS 00
#03712:1616
#03318:2616
#03310:41
#03412:1616
#03518:16
#03512:0016
#03618:16
#03818:1616
#03912:16
#03918:0016
#04012:16
#04118:16
#04112:0016
#04218:16
#07012:0016
#07018:26
#0701f:21
#07118:16
#07112:0016
#07110:41
#07218:1616
#07318:16
#07818:16
#07812:0016
#07918:16
#07418:0016
#07412:16
#07512:16
#07518:0016
#07612:1616
#07712:16
#06219:14
#0621f:11
#06319:14
#06413:14
#06513:14
#08014:1414
#08118:1414
#08218:0014
#08214:14
#08314:14
#08312:0014
#0831a:0014
#05318:14
#05418:14
#05514:14
#05614:14
#05718:14
#05812:14
#0591a:14
#00119:14
#00219:14
#00313:14
#00413:14
#00519:14
#00613:14
#00719:14
#00813:14
#0091a:14
#00910:41
#0101a:14
#01114:14
#01214:14
#01318:14
#01418:14
#01512:14
#01612:14
#01914:14
#02018:14
#02318:14
#02414:14
#0251a:14
#02510:41
#0261a:14
#02712:14
#02812:14
#03214:14
#03118:14
#03014:14
#02918:14
#04518:14
#04510:41
#04614:14
#04718:14
#04814:14
#04312:16
#04318:0016
#04412:16
#01710:41
#017380:14
#018380:24
#021340:14
#022340:24
#049390:14
#050390:24
#051330:14
#052330:24
#060340:14
#061340:24
#066390:14
#067390:24
#068330:14
#069330:24
