This file was generated by Ched 2.6.2.0.
#TITLE ""
#ARTIST ""
#DESIGNER ""
#DIFFICULTY 0
#PLAYLEVEL
#SONGID ""
#WAVE ""
#WAVEOFFSET 0
#JACKET ""
#REQUEST "ticks_per_beat 480"
#00002: 4
#BPM01: 145
#00008: 01
#TIL00: ""
#HISPEED 00
#MEASUREHS 00
#00118:0013000000000000
#00115:00130000
#00112:23000000000013001300001300000000
#0011b:2300000000000013
#00117:0013
#00212:0013000000000000
#0021b:00131300
#00217:0013000000000013
#00216:0000001300000000
#0041b:0013000013001300
#00415:00000000000000000013000000130000
#00418:0000000000130013
#00412:00000000000013000000001300000013
#00414:00130000
#00416:0013000000000000
#00417:0000001300000000
#00812:0000001315000000
#00816:0013000000001200
#00819:00131500
#00818:00000012
#0081b:0013000000000000
#00814:00130000
#00817:0000001300000000
#0091b:0013001300000000
#00918:00000000130000000000000000130000
#00915:00000013000000000000000000001300
#00919:0013
#00917:0000000000130000
#00912:00000013
#00910:41
#0101b:0013000000000013
#01015:00000013000000000000130000000000
#0101a:00130000
#01014:00000000001300000000000000000000
#01019:0000001300000000
#01013:00000000000000130000000000000000
#01018:00000000000000000000001300000000
#01117:0013
#01116:00001200000012000000001300000000
#01118:0000120000000013
#01115:00000000000000000000000000000013
#0111b:0012001200000000
#01113:00120000
#01112:0013
#0121b:13131313
#01215:0013000000130000
#01218:0000001300000000
#01212:13131313
#0171b:2300001300001300
#01719:0000000000000013
#01712:1313
#01716:0013000000130000
#01718:00130000
#01714:0000000000000013
#01710:41
#01817:0013000000130000
#0181b:0000000013000013
#01815:00000000000000000000000000000013
#01816:0013
#01812:0013000000130000
#01918:13000013000000000000000000000000
#0191b:0000001300000000
#01916:00000000000000130000000000000000
#01919:0013
#01914:00000000000000000013000000000000
#01917:0000000000130000
#01912:00001300000000000000001300001300
#01915:00130000
#02012:0014000000000000
#02015:0000140000000013
#02016:00000000000000130000000000000000
#02017:0014000000130000
#0201a:00140013
#0201b:00000000000000130000000000000000
#0251b:13000013
#02512:13000013
#02510:41
#02617:13
#02614:00000013000000000000000000000000
#0261b:0000001300000013
#02615:00000000000000000000000000000013
#02612:13
#02619:00000013000000000000000000000000
#02616:0000001300000000
#02718:13130000
#02712:00130000001300000000130000001300
#0271b:0013000000001300
#02715:00000013000000000000000000000000
#02716:00000000000000130000000000000000
#0281b:1313
#02816:0013
#02812:00130013
#02817:0013000000001300
#02819:0000000000130000
#02814:0000000000000013
#0291b:1313
#02918:00000000000013000000130000000013
#02915:00000000000000130000001300001300
#02916:13
#02912:0013
#03012:1313
#0301b:1313
#03015:00001300000000130000000000000000
#03018:00000013000013000000130000001300
#0311b:1300001300000000
#03112:1300001300000000
#03116:0013
#03119:0000000000130000
#03114:0000000000130000
#03117:00000013
#0331b:0013
#03317:00000000000000000000001300001300
#03314:0014000000000000
#03318:0014000000000000
#03312:2400000000000013
#0331a:24
#03310:41
#0341b:0000000000130013
#03416:0013000000000000
#03412:0000000000000000130000000000000000130000000000000000000000000000
#03415:00000000000000130000000000000000
#03517:13
#03519:0000001300000000
#03512:00000000000000001300001300001300
#03514:0000001300000000
#03516:00000000130000002400002600002800
#03618:0000130000120014
#03616:00130000000000001200000000000000
#03614:00000014
#0401b:1313
#04015:00130000000013000000000000000000
#04018:00001300001300000000130000000000
#04012:00130013
#04016:00000000000000000013000000000000
#04017:00000000000000000000000000130000
#04214:0000000000000013
#0421b:00001300000000000000000000000013
#04218:1300000016161600
#04216:00130000000000000000000000000000
#04215:00130000
#04217:00000000001300000000000000000000
#04212:00000000000013000016001600000000
#04316:1300000013000013
#04319:00130000001300000000000000000000
#04314:0013001300000000
#04317:00000013000000000000001300000000
#04312:00130000
#0431b:00000000000000130000000000000000
#04419:00130000
#0441b:0000001300000000
#04414:00000013
#04515:0013001300130000
#0451b:23000013000000130013000000000000
#04512:23130000
#04518:00000000001300000000000000000013
#04516:0013
#04514:00000013
#0451a:00000000000000000000001300000000
#04519:00000000000000000000000000130000
#04513:0000000000000013
#04510:41
#04717:13
#04712:13001313
#04715:0000000000130013
#04718:00000000000000000013000000000013
#0471b:00000000000000000000001300130000
#04612:1313000013130000
#04617:00130013000000000013001300000000
#04616:0000131300001313
#0461b:00000000001300130000000000130013
#04812:130000130000160016000000
#0481b:00000013000000130000000000000000
#04818:000000130000000000130000000016000000000000000000
#04815:00130000001300000000000000000013
#04817:00000013
#04819:0000000000000013
#04813:00000000000000000000000000130000
#05012:00000013000000130000001300000013
#05018:00001300001300000000130000130000
#05015:00130000000013000013000000001300
#0501b:13131313
#0511b:1313
#05112:0000001300000000
#05215:0013000000000000
#05218:13000013000000000000000000000000
#05212:00130000
#05214:0000001300000000
#05216:0000000013130000
#05217:0000000000000013
#0521b:00130000
#05219:0000001300000000
#05315:00130013001300130000000000000000
#05318:00001300000013000000000013000013
#0531b:23130000
#05312:0000000000000013
#05415:13000013000000001300000000000000
#0541b:0013000000000000
#05412:0000001300000000
#05418:00000000130000130000000000000000
#0551b:0013000000000000
#05517:13
#05516:0013000000000000
#05512:0000000013000013
#05518:00000000000013000000001300001300
#05515:0000000000130000
#0561b:13130000
#05618:0013001300000013
#05615:0013001300001300
#05612:1313
#05715:00001300130000130000000013000013
#05718:00000013000013001300000000001300
#0571b:23130000
#05712:23
#0581b:13000000001300001300000013000000
#05815:0013001300000000
#05818:00000013000000130000000000000000
#05812:00131313
#05816:0000000000130000
#05817:0000000000000013
#05912:1300000000131300
#0591b:1300001313000013
#05916:00000000000000140000001400001300
#05915:0016000000000000
#06017:13
#06016:0000000000140000
#06012:13000014001400140000000014000000
#0601b:0000000000330000
#0601a:00000000003300330000000000000000
#06019:00000033000000000000000000000000
#06115:1313
#06118:00130000000000130000130000000000
#06112:00000014001400000000000013000000
#0611a:00000014001400000000000000000000
#0611b:0000000000000013
#06216:0012
#06218:00000000000000000000001200000000
#0621a:0000000000000012
#0621f:11
#06313:0012000000000000
#06319:00120000
#06315:00000000001200000000000000000000
#0631a:0000000000000012
#06316:0000000000000012
#06419:0000001200000000
#0641c:0012
#0641a:00000000000000000000001200000000
#06414:00000000000000000000001200000000
#06416:0012
#06512:0012
#06514:0000000000120000
#06516:00000012
#06518:0000000000000012
#06616:00000000000000000012000000000000
#06618:0012
#06614:0000000000000012
#0661a:00000000000000000000001200000000
#07918:00001300001300000000140000001300
#07915:00130000130000000000000000000013
#07912:13000000000000000014000000000000
#0791b:0000001300000000
#07916:0014
#07914:00000000000000000000001400000000
#0791a:00000014
#0801b:13130000
#08015:00130000001300000000000000001300
#08018:00001300000013000000140000000013
#08012:00000013000000130000001400000000
#0801a:00000000000000001400001400000000
#08014:00000000000000000014000000000000
#0811b:00000013000000130000000000001300
#08112:13000000130000001400001400000013
#08118:00130000001300000014000000000000
#08115:0013001300000000
#08114:0000000000140000
#0811a:00000000000000000000001400000000
#08218:13140000
#08215:00130000000000000000000000000000
#0821b:0013000000000013
#08212:00000013000000140000000000000000
#08214:00000000001400000000000000000000
#0821a:0000001400000000
#08217:0013
#08216:00000000000000000000001300000000
#08315:0000131300000000
#08318:00000000001300000000000000000000
#0831a:0014
#08312:0014
#08317:00130000000000000000000000000000
#00315:0013000000000000
#00318:00130000
#0031b:00000000000013001300001300000000
#00312:0000000000000013
#00316:0013
#00517:0013001300000013
#0051b:00131300
#00512:00001300000013000000001300000000
#00516:2413
#00518:0000000000000000000000000000000000000013000000000000000000000000
#00515:0000000000000000000000000000000000000000000000000013000000000000
#00612:0013000000000000
#00619:00130000
#0061b:0000001313000000
#00617:0013000000000000
#00616:0000001300000000
#00614:00130000
#00618:0000000000000013
#00716:0013001300000013
#00712:00131300
#0071b:00001300000013000000001300000000
#00717:0013
#00715:0000000000000000000000000000000000000013000000000000000000000000
#00718:0000000000000000000000000000000000000000000000000013000000000000
#00018:26000000000000000013000000000013
#00015:0026000000130013
#00012:00260023
#0001a:00000000000000230000000000000000
#00013:00000000000000230000000000000000
#0001b:00000023
#02112:2300001300001300
#02114:0000000000000013
#0211b:1313
#02117:0013000000130000
#02115:00130000
#02119:0000000000000013
#02216:0013000000130000
#02212:0000000013000013
#02218:00000000000000000000000000000013
#02217:0013
#0221b:0013000000130000
#02315:13000013000000000000000000000000
#02312:0000001300000000
#02317:00000000000000130000000000000000
#02314:0013
#02319:00000000000000000013000000000000
#02316:0000000000130000
#0231b:00001300000000000000001300001300
#02318:00130000
#0241a:0014000000000000
#02417:00000000001400130000000000000000
#02416:0000000000130000
#02413:00000013
#02418:0000000000000013
#02412:00000000140000130000000000000000
#02415:0014000000000000
#03218:00001214
#03216:0000000000120000
#03214:0000000000000014
#0671b:0012000000000000
#06715:00120000
#06719:00000000001200000000000000000000
#06714:0000000000000012
#06718:0000000000000012
#06815:0000001200000000
#06812:0012
#06814:00000000000000000000001200000000
#0681a:00000000000000000000001200000000
#06818:0012
#01318:0000131300001300
#0131b:2300000013130013
#01315:00000000001300130000000000130000
#01312:23000000000000000013001300000000
#01412:0013000000000013
#01419:00000013000000000000000000000000
#01413:00130000
#0141a:00000000001300000000000000000000
#01414:0000001300000000
#0141b:00000000000000130000000000000000
#01418:00130000000000000000130000000000
#01415:00000000000000000000001300000000
#01516:00121300
#01517:00000000000000000000001300000000
#01515:0000000000000013
#01518:00000000000012000000000000000013
#01513:0012001200000000
#0151b:00000012000000001300000000000000
#01612:13001313
#01618:0013001300000000
#01615:00000013000000130000160000000000
#0161b:13001313
#0161a:00130000
#01613:00000000001300000000000000000000
#03712:2413
#03716:00000000000000000000001300001300
#03718:0014000000000000
#03714:0014000000000000
#0371b:0000000000000013
#0371a:24
#03812:0000000000130013
#03817:0013000000000000
#0381b:0000000000000000130000000000000000130000000000000000000000000000
#03818:00000000000000130000000000000000
#03916:1324
#03914:00000000000013000000002600000000
#0391b:00000000000000001300001300001300
#03919:0000001300000000
#03917:00130000
#03912:0000000000000028
#0411b:13
#04114:0000001300000028
#04119:0000001300000000
#04112:00130000
#04117:0013000000000000
#04116:0024
#04115:00000000000000000000002600000000
#0701b:00002300000000001313000000000000
#07017:23000000230000000000001300001300
#07016:0013000000000000
#07014:0000000000000013
#07012:23
#0701f:21
#0711b:13000000131300000000000000001300
#07112:0013000000000000
#07117:00000000000000130000000000000000
#07116:0000000000130013
#07119:0000000000000000000000000000000000130000000000000000000000000000
#0711a:0013
#07118:00000000000000000013000000000000
#07110:41
#07217:1300001300000000
#0721b:0000000013000013
#07212:13000000000013000000001300002800
#07216:00132400
#07214:0013000000000000
#07215:00000000000000000000002600000000
#07316:00131213
#07317:00130000000000000000000000001300
#07318:0000000000120000
#0731b:00000013
#0731a:0012
#07314:0000000000120000
#07312:0000000000000013
#06918:0012
#06916:0000000000120013
#06912:00000013
#06914:0012
#0691a:0000000000120000
#06917:00000013
#0691b:0000000000000013
#07412:00002300000000001313000000000000
#07416:00000000000000000000001300001300
#07418:2612000000000000
#07419:0000000000000013
#07415:23230000
#07512:13000000131300000000000000001300
#0751b:0013000000000000
#07517:0000000000130013
#07516:00000000000000130000000000000000
#07514:0000000000000000000000000000000000130000000000000000000000000000
#07513:0013
#07515:00000000000000000013000000000000
#07616:1300001324000028
#07612:0013
#0761b:13000000000013000000001300000000
#07617:00130000
#07619:0013000000000000
#07615:00000000000000000000002600000000
#07812:1313
#0781b:00000000130000000000001300000000
#07819:0000001300000000
#07814:0000001300000000
#07816:0013000024000000
#07815:00000000000000000000002600000000
#07813:000000000000002a
#07712:1313
#07718:00130000000013000000000000000000
#07715:00001300001300000000130000000000
#0771b:00130013
#07717:00000000000000000013000000000000
#07716:00000000000000000000000000130000
#04918:0000000000000013
#00856:00000022
#00852:0055
#00859:0065
#00858:00000022
#00152:00000000000000000000005300000000
#00157:0053
#0035b:00000000000000000000006300000000
#00356:0063
#0055b:0053
#00558:0000000000000000000000000000000000000023000000000000000000000000
#00552:00000000000000000000006300000000
#00555:0000000000000000000000000000000000000000000000000023000000000000
#00752:0063
#00755:0000000000000000000000000000000000000023000000000000000000000000
#0075b:00000000000000000000005300000000
#00758:0000000000000000000000000000000000000000000000000023000000000000
#01756:0023000000230000
#01752:5353
#01758:00630000
#0175b:0000002300000000
#0185b:0053
#01857:0053000000230000
#01856:0063
#01852:0063000000230000
#01958:13
#01955:00130000
#01957:0000000000000013
#02256:0063000000230000
#02252:0063
#02257:0053
#0225b:0053000000230000
#02355:13
#02358:00130000
#02356:0000000000000013
#0215b:6363
#02157:0023000000230000
#02155:00530000
#02152:0000002300000000
#02056:00000000000000530000000000000000
#02457:00000000000000630000000000000000
#03352:54340000
#03354:0024000000000000
#03358:0024000000000000
#0335a:64440000
#03357:0000000000000063
#0255b:63
#02552:53
#02657:43
#02654:00000033000000000000000000000000
#0265b:0000004300000000
#02656:0000005300000000
#02857:0023000000004300
#0285b:63
#02856:0033
#0275b:00000063
#02752:0000000000630063
#02956:33
#0515b:63
#05258:13
#05256:0000000000630000
#05556:0033000000000000
#05557:43
#05655:0023000000000000
#05652:63
#0565b:00530000
#05658:0000002300000000
#0585b:0013
#05852:00000013
#0595b:13
#05952:13
#06057:63
#0105b:0000000000000013
#00955:0000000000000013
#01157:0053
#01252:00000033
#0125b:00000043
#0135b:0000000000000013
#01452:0000000000000013
#01556:0063
#01652:00000033
#0165b:00000043
#0835a:0044
#08352:0034
#08357:00230000000000000000000000000000
#00257:0000000000000013
#00658:0000000000000013
#03556:00000000000000004400004600004800
#03552:0000000000000063
#03557:63
#03656:00230000000000000000000000000000
#03455:00000000000000530000000000000000
#03452:0000000000000000000000000000000000230000000000000000000000000000
#03756:0000000000000053
#03758:0024000000000000
#03754:0024000000000000
#0375a:64440000
#03752:54340000
#03956:5334
#03954:00000000000000000000003600000000
#03952:0000000000000038
#0415b:53
#04157:0023000000000000
#04156:0014
#04155:00000000000000000000001600000000
#04154:0000000000000018
#04356:0063
#04357:00000000000000000000006300000000
#08052:00000000000000000000003400000000
#0805a:00000000000000000000004400000000
#08256:00000000000000000000005300000000
#08257:0053
#0825b:0000000000000063
#0815a:00000000000000000000004400000000
#08152:00000000000000000000003400000000
#07057:0000430000000063
#07056:0023000000000000
#07052:53330000
#07257:63
#0725b:0000000000000053
#07256:0034
#07255:00000000000000000000004600000000
#07252:0000000000000038
#07357:00230000000000000000000000000000
#07157:00000000000000530000000000000000
#0715b:23
#0715a:0023
#07158:00000000000000000023000000000000
#07159:0000000000000000000000000000000000530000000000000000000000000000
#07456:0000000000000053
#07458:6622460000000000
#07455:00330000
#07656:5300000044000048
#07655:00000000000000000000003600000000
#07552:23
#07556:00000000000000630000000000000000
#07554:0000000000000000000000000000000000630000000000000000000000000000
#07553:0023
#07555:00000000000000000023000000000000
#07856:0023000014000000
#07855:00000000000000000000001600000000
#07853:000000000000001a
#07852:63
#03858:00000000000000630000000000000000
#0385b:0000000000000000000000000000000000230000000000000000000000000000
#04454:0013
#04459:00000013
#001370:0013
#0013b0:00000000000000000000002300000000
#001321:00000000000000000000001300000000
#001361:0000000000000023
#002361:0000000013230000
#0023b0:0000000000132300
#002321:0000000000001323
#003361:0013
#003321:00000000000000000000002300000000
#0033b0:00000000000000000000001300000000
#003370:0000000000000023
#0053b0:00000000000000001300002300000000
#005380:0000000000000000000000000000000000000053000000000000000000000000
#005321:00000000000000000000001300002300
#005351:0000000000000000000000000000000000000000000000000053000000000000
#006351:0013
#006321:0000000000230000
#0063b0:0000000000130000
#006380:00000023
#006351:00000013
#006321:0000000000000023
#007321:00000000000000001300002300000000
#007351:0000000000000000000000000000000000000053000000000000000000000000
#0073b0:00000000000000000000001300002300
#007380:0000000000000000000000000000000000000000000000000053000000000000
#008320:0015
#008360:00000052
#009320:25
#008391:0015
#008381:00000052
#009391:25
#009361:0000001300000000
#009321:0000000000230000
#010381:0000000013230000
#010321:0000000000001323
#011371:0013
#0113b1:00000000000000000000002300000000
#013351:0013230000000000
#014351:0000000013230000
#0143b1:0000000000001323
#015361:0013
#015321:00000000000000000000002300000000
#017321:13230000
#017361:0053000000000000
#017380:00132300
#0173b0:0000005300000000
#017321:00001323
#017361:0000000000530000
#018371:0013000000000000
#0183b1:0000002300000000
#018320:0013000000000000
#018360:0000002300000000
#0183b0:00001323
#018370:0000000000530000
#018361:00001323
#018321:0000000000530000
#019371:0000000000001323
#020361:00000000000000130000000000000000
#020321:0000000000230000
#0213b1:13230000
#021371:0053000000000000
#021350:00132300
#021320:0000005300000000
#0213b1:00001323
#021371:0000000000530000
#022361:0013000000000000
#022321:0000002300000000
#0223b0:0013000000000000
#022370:0000002300000000
#022320:00001323
#022360:0000000000530000
#022371:00001323
#0223b1:0000000000530000
#023361:0000000000001323
#024371:00000000000000130000000000000000
#0243b1:0000000000230000
#0253b1:13
#025381:0023
#025320:13
#025350:0023
#026360:0000001300000000
#026320:00005323
#0273b0:00000000000000130000000000000000
#027370:0000000000230000
#027321:0000000000130000
#027351:00000023
#0273b0:00000013
#027380:0000000000000023
#027321:0000000000000013
#028351:23
#0283b0:13230000
#028370:0053000000000000
#030350:00000000000000000000001300002300
#0313b0:0000000000000013
#0323b0:0000002300000000
#031321:0000000000000013
#032321:0000002300000000
#033321:14240000
#033341:0054000000000000
#0333a0:14240000
#033380:0054000000000000
#033360:00000000000000000013000000000000
#033320:00000000000000000000002300000000
#033370:0000000000000013
#0343b0:0023000000000000
#034370:00000000001300000000000000000000
#0343b0:00000000000000230000000000000000
#034351:00000000000000130000230000000000
#034321:0000000000000000000000000000000000530000000000000000000000000000
#034321:0000000000000013
#035321:23
#035370:13
#0353b0:00230000
#035320:0000000000000013
#036360:00530000000000000000000000000000
#036320:00230000
#0373a0:14240000
#037380:0054000000000000
#037321:14240000
#037341:0054000000000000
#037371:00000000000000000013000000000000
#0373b1:00000000000000000000002300000000
#037361:0000000000000013
#038321:0023000000000000
#038361:00000000001300000000000000000000
#038321:00000000000000230000000000000000
#038380:00000000000000130000230000000000
#0383b0:0000000000000000000000000000000000530000000000000000000000000000
#0383b0:0000000000000013
#0393b0:23
#039361:13
#039321:00230000
#040351:0000000000000013
#041351:23
#0413b0:13230000
#041370:0053000000000000
#043360:0013
#043320:00000000000000000000532300000000
#043371:00000000000000000000001300000000
#0433b1:00000000000000000000000000532300
#044341:00132300
#044331:0000000000000000005500003500005500000000000000000000000000000000
#044390:00001323
#047390:000000120032003200320032000000000000000000000000
#0473a0:000032323232220000000000
#0493b0:135300000000000053230000000000000000000000000000
#0493a0:005300005300530000000000530053000053000000000000000000000000000000000000000000000000000000000000
#049390:000000530053000053005300005300530000000000000000000000000000000000000000000000000000000000000000
#049380:000000000000005300530053000000000000000000000000000000000000000000000000000000000000000000000000
#049321:000000000000000000135300000000000000000053230000
#049331:000000000000000000000000000000000000005300005300530000000000000000000000530053000053000000000000
#049341:000000000000000000000000000000000000000000530053000053005300000053005300005300530000000000000000
#049351:000000000000000000000000000000000000000000000000005300530000530000530053000000000000000000000000
#049361:000000000000000000000000000000000000000000000000000000000053005300000000000000000000000000000000
#0513b1:13
#051371:0000002300000000
#051341:000000000000133333333333
#051331:000000000000000000000000003300330033003300330033
#052341:23
#0523b1:0000000013230000
#052360:0000000000130000
#052320:0000000000000023
#0533b0:0013
#053380:0000000000230000
#053351:0000000000130000
#053321:00000023
#0543b1:0000000013230000
#054350:0000000000132300
#054381:0000000000001323
#054320:0000000000000013
#055320:23
#056320:13230000
#056350:0053000000000000
#0563b1:00132300
#056381:0000005300000000
#057321:0013
#057351:0000000000230000
#057380:0000000000130000
#0573b0:00000023
#060370:13
#060390:00000033000000000000000000000000
#0603a0:00000000003300330000000000000000
#0603b0:0000000000332300
#062340:12220000
#0633b0:00000000000000120000220000000000
#064340:12220000
#064320:0000000000000012
#065320:00220000
#064381:0000000000000012
#065381:00220000
#0663a1:12220000
#067331:00000000000000120000220000000000
#0683a1:12220000
#068361:0000000000000012
#069361:00220000
#0683c0:0000000000000012
#0693c0:00220000
#070320:13230000
#070360:0053000000000000
#070360:00000000000000000013000000000000
#070320:00000000000000000000002300000000
#070370:0000000000000013
#0713b0:53
#071370:0023000000000000
#071360:00000000001300000000000000000000
#071320:00000000000000230000000000000000
#071371:00000000000000130000000000000000
#0713a1:0053
#071391:0000000000000000000000000000000000530000000000000000000000000000
#071381:00000000000000000053000000000000
#0713b1:0000000000230000
#072371:13
#0723b1:0053230000000000
#0723b1:0000000000000013
#073371:00530000000000000000000000000000
#0733b1:00230000
#074381:1652260000000000
#074371:00000000000000000013000000000000
#0743b1:00000000000000000000002300000000
#074361:0000000000000013
#075321:53
#075361:0023000000000000
#075371:00000000001300000000000000000000
#0753b1:00000000000000230000000000000000
#075360:00000000000000130000000000000000
#075330:0053
#075340:0000000000000000000000000000000000530000000000000000000000000000
#075350:00000000000000000053000000000000
#075320:0000000000230000
#076360:13
#076320:0053230000000000
#077380:0000000000000013
#078380:23
#078321:13230000
#078361:0053000000000000
#082371:0013
#0823b1:00000000000000000000002300000000
#082360:00000000000000000000001300000000
#082320:0000000000000023
#0823b1:0000000000000013
#083371:00530000000000000000000000000000
#0833b1:00230000
