This file was generated by Ched 2.6.3.0.
#TITLE ""
#ARTIST ""
#DESIGNER ""
#DIFFICULTY 0
#PLAYLEVEL
#SONGID ""
#WAVE ""
#WAVEOFFSET 0
#JACKET ""
#REQUEST "ticks_per_beat 480"
#00002: 4
#BPM01: 145
#00008: 01
#TIL00: ""
#HISPEED 00
#MEASUREHS 00
#0011b:0013000000000000
#00115:00000000130000000000003300000000
#00118:0000001300000000
#00112:0013
#00212:0013000000000013
#0021b:0013
#00215:0000130000130000
#00218:0000001300001300
#00412:0013
#0041b:0013000000000000
#00418:00130000
#00415:00000000000013000000003333330000
#00413:00000000000000000033000000000000
#00414:0000000000330000
#00416:00000000000000000000000000003333
#0081b:0013
#00818:0000001300001300
#00812:0013000000000000
#00815:00130000
#00912:0013001300000000
#00918:00131300
#00915:0000000000130013
#0091b:00000013
#00910:41
#01118:0000130000000013
#01112:0013000000000000
#01115:0000001300000000
#01215:1313
#01212:00130013
#01218:0000001300130000
#0121b:0013000000000000
#01912:0000001300000000
#01915:0013000013000000
#01918:1300000000130000
#0191b:00130000
#02018:00130013
#02015:0013000000000013
#0201b:0013000000000000
#02012:00130000
#02519:00000013
#02514:00000013
#02510:41
#0261b:0000000000000013
#02618:1300001300000000
#02615:00000013000000000000000000000000
#0261a:00000000000000000000000000000033
#02812:0013
#02818:0000000000130013
#02815:13000013
#02915:0000001300000000
#02918:0000000013000013
#02912:13
#0291b:0000000000330000
#03019:0000000000000013
#03015:1300001300000000
#03014:0000000000000013
#03018:0013
#03012:0033000000000000
#0301b:0000000000330000
#03115:00001313
#03118:0000001300130000
#0311b:00000013
#03112:0000001300000000
#03318:0000000013000013
#0331b:00000000000000000000001300000000
#03315:00000000000000000013000000000000
#03316:24
#03310:41
#03412:0000000000000013
#03415:00000000130000130000000000000000
#03418:00000000001300000000000000000000
#0421b:0013000000000013
#04212:13
#04215:00130000
#04218:0000001300000000
#04315:1313
#04318:0013000000000000
#0431b:0000001300000000
#04312:00000000130000000000001300000000
#04416:00130014
#0441b:00130000
#04414:0000001300000000
#04412:0013
#04417:0013
#04419:0000001300000000
#04515:0013001300000000
#04518:00000000130000000000333333330000
#0451b:2313
#04512:23
#0451a:00000000000000000033000000000000
#04510:41
#0471b:1300000000000013
#04715:13000013
#04718:0000000000130000
#04818:00000013
#04815:00003333333300000000000000001300
#0481a:0014
#04816:000000000000001400000000
#04812:130014
#04813:00330000000000000000000000000000
#05114:0000001400000000
#05112:13
#05118:13
#05215:0013000000130000
#05218:00130000
#0521b:0013
#05212:0000001300000000
#05318:0013000000130000
#05315:23131313
#05312:0000001300000013
#0531b:23000013
#05512:1300001300000000
#05518:00001300000000000000001300000000
#0551b:0013
#05515:0000000000130013
#05615:00000013
#05618:1600160016000013
#05612:0016001600000000
#05918:0000001300130000
#05915:0013000013000000
#05912:00000013
#0591b:1300000000000013
#06019:0000000000131300
#06014:0000000000131300
#0601a:00000014000000000000000000000000
#06016:00000000001400000000000000000000
#06012:00000000000000140000000000000000
#06015:13
#06118:0000000000130013
#06115:00000000003300000000000013000000
#06112:13
#06113:00330000000000000000000000000000
#06114:00000033000000000000000000000000
#06116:00000000000000330000000000000000
#06319:00120000
#06315:00000000001200000000000000000000
#06314:0000000000000012
#0631b:00000000000000120000000000000000
#0641a:12
#06419:0000001200000000
#06414:00000000000000001200001200001200
#06415:00120000
#08018:0000000000130000
#08015:13000000000000000000001300000000
#08012:00000033130000000000000000001300
#08014:00330000000000330000000000000000
#08013:00003300003333000000000000000000
#08112:0000000000000013
#08115:0000000000130000
#08118:13000000000000000000001300000000
#0811b:00000033130000000000000000000000
#08119:00330000000000330000000000000000
#0811a:00003300003333000000000000000000
#08215:1313
#08218:0013001300000000
#0821b:00130000
#08212:00000000000000000000001300000000
#0831a:0013
#08313:0013
#01712:13
#01715:0000000000000013
#0171b:0013
#01710:41
#0181b:0013
#01818:0000000000130000
#01815:0013000000000013
#02718:00130033000000000000000000001300
#02718:00000033000000000000000000000000
#0271b:00000013
#02719:33330000
#03512:00000000000013000000002400000000
#03516:0024
#0351a:0000000000000024
#07018:0013
#07017:0014000000000013
#07015:00000000000000000013000000000000
#0701a:24
#07012:24
#0701f:21
#0771b:1313
#07715:0013000000001300
#07718:0000130000130000
#07712:0000001300000013
#07818:13
#0781b:0013000000000000
#07815:0000001300000000
#0781a:0024
#07816:00000000000000000000002400000000
#07812:0000000000000024
#00312:0013000000000000
#00318:00000000130000000000003300000000
#00315:0000001300000000
#0031b:0013
#0051b:0013000000000000
#00518:00130000
#00512:0000001300000000
#00517:0013
#00515:0013000000000000
#0051a:00000000000000000000003300000000
#0061b:0013000000000013
#00612:0013
#00618:0000130000130000
#00615:0000001300001300
#00712:0013000000000000
#00715:00130000
#0071b:0000001300000000
#00716:0013
#00718:0013000000000000
#00713:00000000000000000000003300000000
#0101b:0013001300000000
#01015:00131300
#01018:0000000000130013
#01012:00000013
#0131b:0013000000130000
#01315:00130013
#01318:2300001300000013
#01312:2313
#01515:0000130000000013
#0151b:0013000000000000
#01518:0000001300000000
#01618:1313
#0161b:00130013
#01615:0000001300130000
#01612:0013000000000000
#01412:0013000000130000
#01418:00130013
#01415:0000001300000013
#0141b:0013
#0231b:0000001300000000
#02318:0013000013000000
#02315:1300000000130000
#02312:00130000
#0211b:13
#02118:0000000000000013
#02112:0013
#02212:0013
#02215:0000000000130000
#02218:0013000000000013
#02415:00000000001300000000000013000000
#02418:0013000000000013
#02412:0013000000000000
#0241b:00130000
#03212:0013
#03215:0000000000130000
#03218:00000013
#0321b:0000000000000013
#03715:0000000013000013
#03712:00000000000000000000001300000000
#03718:00000000000000000013000000000000
#03716:24
#0381b:0000000000000013
#03818:00000000130000130000000000000000
#03815:00000000001300000000000000000000
#0391b:0000001300000000
#03916:0024
#0391a:00000000000000000000002400000000
#03912:0000000000000024
#0361b:0013
#03618:0000000000130000
#03615:00000013
#03612:0000000000000013
#04012:0000001300000013
#0401b:1313
#04015:0013000000001300
#04018:0000130000130000
#0411b:0000001300000000
#04112:0024
#04116:00000000000000000000002400000000
#0411a:0000000000000024
#04612:13
#04616:00000013330000000000000000000000
#0461b:0013
#04617:00000000000000000000001333000000
#04614:00330000000000000000000000000000
#04615:00003300003300000000000000000000
#04619:00000000000000000033000000000000
#04618:00000000000000000000330000330000
#04918:13
#0491b:0000001300000000
#05415:1300001300000013
#05418:0013000013001300
#0541b:0000130000000013
#05412:0000000000130000
#06215:12
#06219:00120000
#0621f:11
#06715:00120000
#06719:00000000001200000000000000000000
#0671a:0000000000000012
#06713:00000000000000120000000000000000
#06814:12
#06815:0000001200000000
#0681a:00000000000000001200001200001200
#06819:00120000
#06619:12
#06615:00120000
#06519:00001212
#06515:0000000000120012
#06912:0013
#0691b:0013
#06915:0000000000130013
#06918:00000013
#0711b:0000000000130000
#07118:0000130000000013
#07115:00000000001300000000130000000000
#07110:41
#07212:00000000000013000000002600000000
#07218:0000000026000026
#07415:0014000013000000
#07416:0000000000000013
#07418:00000000000000000013000000000000
#07412:24
#0741a:24
#0731b:0013
#07312:0013
#07318:0000000000130013
#07315:00000013
#07512:0000000000130000
#07515:0000130000000013
#07518:00000000001300000000130000000000
#0761b:0000001300000000
#07612:0000000026000026
#07618:00000000000000000000002600000000
#05715:0013000000130000
#05718:00131313
#0571b:2300001300000013
#05712:23000013
#05818:1300001300000013
#05815:0013000013001300
#05812:0000130000000013
#0581b:0000000000130000
#0791b:1300000000000013
#07912:0013000000000000
#07918:00130000
#07915:0000001300000000
#00018:24240000
#00014:0024000000330000
#00016:00000000000000230000000000000000
#00013:00000000000000000000000033003333
#00015:00000000000000000033000000000000
#00858:00000023
#0085b:0053
#00152:0053
#01752:53
#0175b:0063
#0185b:0053
#01858:0000000000230000
#01855:0063000000000000
#0195b:0000000000000013
#03356:64
#03358:0000000000000063
#03352:00140000
#02758:00230000000000000000000000000000
#0265b:0000000000000053
#02658:1300001300000000
#02655:00000013000000000000000000000000
#0835a:0043
#08353:0033
#00252:0000000000000013
#03455:00000000000000530000000000000000
#04456:00000014
#04355:0063
#04352:00000000000000000000002300000000
#08255:0053
#08252:00000000000000000000002300000000
#07057:0024000000000063
#0705a:54440000
#07055:00000000000000000053000000000000
#07858:53
#0785b:0023000000000000
#0785a:0014
#07856:00000000000000000000001400000000
#07852:0000000000000014
#00056:00000000000000530000000000000000
#0035b:0063
#00452:0053
#00557:0053
#0065b:0000000000000013
#00756:0063
#01252:00000013
#0165b:00000013
#0215b:63
#02152:0053
#02252:0063
#02255:0000000000230000
#02258:0053000000000000
#02352:0000000000000013
#02852:0013
#02855:00000013
#02952:13
#02958:0053
#03556:0014
#03552:00000000000000000000001400000000
#0355a:0000000000000014
#03755:0000000000000053
#03756:54
#0375a:00140000
#03858:00000000000000630000000000000000
#03956:0014
#0395a:00000000000000000000001400000000
#03952:0000000000000014
#04152:0014
#04156:00000000000000000000001400000000
#0415a:0000000000000014
#04656:00000023000000000000000000000000
#04652:63
#0465b:0053
#04657:00000000000000000000002300000000
#0455b:0063
#04852:53
#04958:53
#0495b:0000005300000000
#05552:13
#05558:0013000000000000
#06152:53
#07155:00000000005300000000000000000000
#07258:0000000016000016
#07252:00000000000000000000001600000000
#07456:0000000000000053
#07455:0024000000000000
#07458:00000000000000000063000000000000
#07452:64340000
#07558:00000000006300000000000000000000
#07652:0000000016000016
#07658:00000000000000000000001600000000
#08055:63000000000000000000001300000000
#08052:00230000
#08158:53000000000000000000001300000000
#0815b:00230000
#03055:63
#03058:0053
#0595b:13
#05955:0013000000000000
#000360:00000000000000130000000000000000
#000350:00000000000000000033000000000000
#000340:0000000000330000
#000330:00000000000000000000000033003333
#001320:23
#001320:0013
#001350:00000000000000000000003300000000
#001360:0000000000000023
#0033b0:0013
#003380:00000000000000000000003300000000
#003370:0000000000000023
#004320:0013
#004330:00000000000000000033000000000000
#004340:0000000000330000
#004350:00000000000000000000003333330000
#004360:00000000000000000000000000003333
#005360:23
#005370:0013
#0053a0:00000000000000000000003300000000
#0053b0:0000000000000023
#007360:0013
#007330:00000000000000000000003300000000
#007320:0000000000000023
#0083b0:0013
#008380:00000053
#0093b0:23
#0113b0:00000000000000001300002300000000
#015320:00000000000000001300002300000000
#017320:13
#017350:00230000
#0173b0:0013
#017380:00000023
#018350:0013000000000000
#018320:0000002300000000
#0183b0:00001323
#018380:0000000000530000
#0193b0:0000000000001323
#020350:00000000000000130000230000000000
#0213b0:13
#021380:00230000
#021320:0013
#021350:00000023
#022380:0013000000000000
#0223b0:0000002300000000
#022320:00001323
#022350:0000000000530000
#023320:0000000000001323
#024380:00000000000000130000230000000000
#0253b0:1323
#025321:1323
#0263b1:0000000000000013
#0263a1:00000000000000000000000000000033
#027391:33330000
#027381:00333333000000000000000000000000
#0273b1:00000000002300000000000000000000
#027351:00000000000000130000230000000000
#029381:0013
#0293b1:00000000000000000000332300000000
#030351:13
#030321:00003323000000000000000000000000
#030381:0013
#0303b1:00000000000000000000332300000000
#031381:0000000000000013
#032381:0000002300000000
#033361:14
#033321:00240000
#033381:0000000000000013
#0343b1:0023000000000000
#034351:00000000000000130000000000000000
#034321:0000000000230000
#035381:13230000
#037361:14
#0373a1:00240000
#037351:0000000000000013
#038321:0023000000000000
#038381:00000000000000130000000000000000
#0383b1:0000000000230000
#039351:13230000
#041381:13230000
#042321:0013
#042331:00000000000000000033000000000000
#042341:0000000000330000
#042351:00000000000000000000003300000000
#042361:00000023
#043351:0000000013000023
#043321:00000000000000000000003300000000
#0453b1:0013
#0453a1:00000000000000000033000000000000
#045381:00000000000000000000333333330000
#045371:0000000000000023
#046321:1300002300000000
#046341:00330000000000000000000000000000
#046351:00003300003300000000000000000000
#046361:00000033330000000000000000000000
#0463b1:0000000013000023
#046391:00000000000000000033000000000000
#046381:00000000000000000000330000330000
#046371:00000000000000000000003333000000
#047321:000000130033003300330033000000000000000000000000
#047331:000033333333230000000000
#048321:13
#048331:00330000000000000000000000000000
#048351:00003333333300000000000000000000
#048361:0000002300000000
#049381:13
#0493b1:0000003300000000
#049371:0000000000000023
#050321:14343434340000000034343434000000
#050351:00000000003434343400000000342400
#051381:000000000000143434343434
#051371:000000000000000000000000003400340034003400340034
#052381:24
#061321:13
#061331:00330000000000000000000000000000
#061341:00000033000000000000000000000000
#061351:00000000003300002300000000000000
#061361:00000000000000330000000000000000
#062351:00000000000000001200003200003200
#063351:0022000000000000
#066391:00000000000000001200003200003200
#067391:0022000000000000
#0703a1:14240000
#070371:0054000000000000
#070351:00000000000000000013000000000000
#070321:00000000000000000000002300000000
#070371:0000000000000013
#0713b1:0023000000000000
#071351:00000000001300000000000000000000
#071321:00000000000000230000000000000000
#0723b1:13230000
#072350:13230000
#074320:14240000
#074350:0054000000000000
#074380:00000000000000000013000000000000
#0743b0:00000000000000000000002300000000
#074360:0000000000000013
#075320:0023000000000000
#075380:00000000001300000000000000000000
#0753b0:00000000000000230000000000000000
#076320:13230000
#076381:13230000
#078381:13230000
#0783b1:0053000000000000
#0793b1:0013
#0793a1:00000000000000000033000000000000
#079391:0000000000330000
#079381:00000000000000000000003300000000
#079371:00000023
#080351:1323
#080341:00330000000000330000000000000000
#080331:00003300003333000000000000000000
#080321:00000033330000000000000000000000
#081381:1323
#081391:00330000000000330000000000000000
#0813a1:00003300003333000000000000000000
#0813b1:00000033330000000000000000000000
#082351:0000000013000023
#082321:00000000000000000000003300000000
#0833b1:00130000
#083391:00000000003300000000000000000000
#083371:0000002300000000
