This file was generated by Ched 2.6.3.0.
#TITLE ""
#ARTIST ""
#DESIGNER ""
#DIFFICULTY 0
#PLAYLEVEL
#SONGID ""
#WAVE ""
#WAVEOFFSET 0
#JACKET ""
#REQUEST "ticks_per_beat 480"
#00002: 4
#BPM01: 145
#00008: 01
#TIL00: ""
#HISPEED 00
#MEASUREHS 00
#00116:0013000000000000
#00112:23000000000013001300001300000000
#0011b:23001300000000000000001300001300
#00117:0000001313000000
#00115:0000000000130000
#00119:00130000
#00212:0013000000000000
#0021b:0000001313000013
#00217:0013000000000000
#00216:0000001300000000
#00214:00130000
#0041b:0013000013001300
#00418:00000000000000000013000000130000
#00412:0000001300130013
#00415:00000000000000000000001300000013
#00414:00130000
#00416:0013000000000000
#00417:0000001300000000
#0081c:0012
#00817:0013000000001300
#00812:0013000012000000
#00819:00130000
#0081b:0000001300000000
#00816:000000000000000000000000000000000000000000000000000000000000000000000000000000000000000000000000000000000000000000000000000000000000000000000000000000000000000000000000000000000000000000000000000000000000000000000000000000000000000000000000000000000000000000000000000000000000000000000000000000000000000000000000000000000000000000000000000000000000000000000000000000000000000000000000000000000000000000000000000000000000000000000000000000000000000000000000000000000000000000000000000000000000000000000000000000000000000000000000000000000000000000000000000000000000000000000000000000000000000000000000000000000000000000000000000000000000000000000000000000000000000000000000000000000000000000000000000000000000000000000000000000000000000000000000000000000000000000000000000000000000000000000000000000000000000000000000000000000000000000000000000000000000000000000000000000000000000000000000000000000000000000000000000000000000000000000000000000000000000000000000000000000000000000000000000000000000000000000000000000000000000000000000000000000000000000000000000000000000000000000000000000000000000000000000000000000000000000000000000000000000000000000000000000000000000000000000000000000000000000000000000000000000000000000000000000000000000000000000000000000000000000000000000000000000000000000000000000000000000000000000000000000000000000000000000000000000000000000000000000000000000000000000000000000000000000000000000000000000000000000000130000000000000000000000000000000000000000000000000000000000000000000000000000000000000000000000000000000000000000000000000000000000000000000000000000000000000000000000000000000000000000000000000000000000000000000000000000000000000000000000000000000000000000000000000000000000000000000000000000000000000000000000000000000000000000000000000000000000000000000000000000000000000000000000000000000000000000000000000000000000000000000000000000000000000000000000000000000000000000000000000000000000000000000000000000000000000000000000000000000000000000000000000000000000000000000000000000000000000000000000000000000000000000000000000000000000000000000000000000000000000000000000000000000000000000000000000000000000000000000000000000000000000000000000000000000000000000000000000000000000000000000000000000000000000000000000000000000000000000000000000000000000000000000000000000000000000000000000000000000000000000000000000000000000000000000000000000000000000000000000000000000000000000000000000000000000000000000000000000000000000000000000000000000000000000000000000000000000000000000000000000000000000000000000000000000000000000000000000000000000000000000000000000000000000000000000000000000000000000000000000000000000000000000000000000000000000000000000000000000000000000000000000000000000000000000000000000000000000000000000000000000000000000000000000000000000000000000000000000000000000000000000000000000000000000000000000000000000000000000000001300000000000000000000000000000000000000000000000000000000000000000000000000000000000000000000000000000000000000000000000000000000000000000000000000000000000000000000000000000000000000000000000000000000000000000000000000000000000000000000000000000000000000000000000000000000000000000000000000000000000000000000000000000000000000000000000000000000000000000000000000000000000000000000000000000000000000000000000000000000000000000000000000000000000000000000000000000000000000000000000000000000000000000000000000000000000000000000000000000000000000000000000000000000000000000000000000000000000000000000000000000000000000000000000000000000000000000000000000000000000000000000000000000000000000000000000000000000000000000000000000000000000000000000000000000000000000000000000000000000000000000000000000000000000000000000000000000000000000000000000000000000000000000000000000000000000000000000000000000000000000000000000000000000000000000000000000000000000000000000
#00814:00130000
#0091b:0013130013000013
#00915:00130013
#00918:00000013000000000000000000130000
#00916:0000001300130000
#00912:0000000000000016
#00910:41
#01018:00001300001300000000000000000000
#0101b:00000013000000000000000000000000
#01015:00000000130000130000000000000000
#01012:0000001300000000
#01016:00000000000000000000141400001400
#01118:0000001213000000
#01115:00000000000000000000001300001616
#0111c:0012000000000000
#01116:0012000000000000
#0111a:00120000
#01114:00120000
#01112:0000001213000000
#0111b:0000000000000000000000000000000000000013000000000000000000000000
#01215:00001300000000130000130000000000
#01218:00000013160013000000001316000000
#01212:16001613
#01717:2313131300131313
#01712:1300000013000013
#0171b:0013001300130000
#01710:41
#01912:13000000000000000000001400000000
#0191a:0000001400000000
#01916:00000000000000140000140000001400
#01918:0014
#01914:00000033000000000014000014000000
#0191b:00130000
#02018:0000000000130000
#0201a:00000032000000000000000013000000
#02017:0000000000000013
#0201b:00000000000000130000000000000000
#02015:00000032000000000000000000000000
#0251b:00000013
#02516:00000013
#0251a:14
#02512:00000000001400000000000000000000
#02510:41
#0261b:00000013000000000000130000001300
#02618:00000000000000000000000000000013
#02612:1300001300000000
#02616:0000001300000000000000000000000000000000000000000000000000000000
#02617:0000000000000000001300000000000000001300000000001300000000000000
#02712:13000000001300000000000000000000
#02715:00130000130000000000000000000000
#0271b:00001300000000130000000000000000
#02718:0000000000001300000013000000000000130000000000000000000000000000
#02716:00000000000000130000000000000000
#02817:13
#02815:00000000000000001300000000130000
#0281b:00001300000000001300001300000000
#02812:00000000130000000000160013000013
#02818:00000000000000000013000013001600
#02816:0013000000000000
#0291b:1300001313000000
#02915:13000000000000160000000000000016
#02916:00000000000000000000141400000000
#02912:0000000013000013
#03016:00001414000014140000000000000000
#0301b:1313
#03015:00000000000000000000131300000000
#03012:1313
#03018:00000000000000000000131300000000
#03119:14140000
#03113:14000000140000000015000000000000
#03118:0000001615141300
#03112:00000000000000160000000000000000
#03114:00000000000000000000001400000000
#03115:00000000000000000000000000130000
#03318:0000000013130000
#03317:230000000000000000000000000000000000000000000000000000000000000000000000000000000000000000000000000000000000000000000000000000000000000000000000000000000000000000000000000000000000000000000000000000000000000000000000000000000000000000000000000000000000000000000000000000000000000000000000000000000000000000000000000000000000000000000000000000000000000000000000000000000000000000000000000000000000000000000000000000000000000000000000000000000000000000000000000000000000000000000000002300000000000000000000000000000000000000000000000000000000000000000000000000000000000000000000000000000000000000000000000000000000000000000000000000000000000000000000000000000000000000000000000000000000000000000000000000000000000000000000000000000000000000000000000000000000000000000000000000000000000000000000000000000000000000000000000000000000000000000000000000000000000000000000000000000000000000000000000000000000000000000000000000000000000000000000000000000000000000000000000000000000000000000000000000000000000000000000000000000000000000000000000000000000000000000000000000000000000000000000000000000000000000000000000000000000000000000000000000000000000000000000000000000000000000000000000000000000000000000000000000000000000000000000000000000000000000000000000000000000000000000000000000000000000000000000000000000000000000000000000000000000000000000000000000000000000000000000000000000000000000000000000000000000000000000000000000000000000000000000130000000000000000000000000000000000000000000000000000000000000000000000000000000000000000000000000000000000000000000000000000000000000000000000000000000000000000000000000000000000000000000000000000000000000000000000000000000000000000000000000000000000000000000000000000000000000000000000000000000000000000000000000000000000000000000000000000000000000000000000000000000000000000000000000000000000000000000000000000000000000000000000000000000000000000000000000000000000000000000000000000000000000000000000000000000000000000000000000000000000000000000000000000000000000000000000000000000000000000000000000000000000000000000000000000000000000000000000000000000000000000000000000000000000000000000000000000000000000000000000000000000000000000000000000000000000000000000000000000000000000000000000000000000000000000000000000000000000000000000000000000000000000000000000000000000000000000000000000000000000000000000000000000000000000000000000000000000000000000000000000000000000000000000000000000000000000000000000000000000000000000000000000000000000000000000000000000000000000000000000000000000000000000000000000000000000000000000000000000000000000000000000000000000000000000000000000000000000000000000000000000000000000000000000000000000000000000000000000000000000000000000000000000000000000000000000000000000000000000000000000000000000000000000000000000000000000000000000000000000000000000000000000000000000000000000000000000000000000000000000000000000000000000000000000000000000000000000000000000000000000000000000000000000000000000000000000000000000000000000000000000000000000000000000000000000000000000000000000000000000000000000000000000000000000000000000000000000000000000000000000000000000000000000000000000000000000000000000000000000000000000000000000000000000000000000000000000000000000000000000000000000000000000000000000000000000000000000000000000000000000000000000000000000000000000000000000000000000000000000000130000000000000000000000000000000000000000000000000000000000000000000000000000000000000000000000000000000000000000000000000000000000000000000000000000000000000000000000000000000000000000000000000000000000000000000000000000000000000000000000000000000000000000000000000000000000000000000000000000000000000000000000000000000000000000000000000000000000000000000000000000000000000000000000000000000000000000000000000000000000000000000000000000000000000000000000000000000000000000000000
#0331b:00000000000000000013000000001300
#03312:2300001313000000
#03315:00000000000000000013000000000000
#03316:00000000000000000000001300000000
#03310:41
#0341b:00000000000000130000130000001300
#03416:00001300000000130000000000001300
#03412:0000000000000000130013000000000000130000000000001700000000000000
#03418:13
#03516:13
#03517:0000000000000000130000001300000023000013000000000013000000000000
#03512:13000000000013000000002500002900
#03515:0013000000000000
#0351b:00000000000000001333331333332300
#0401b:1313000013130000
#04017:00140000000000000014000000130000
#04014:0013000000130013
#04012:0000131300001300
#04015:00000000001400000000000000000000
#04019:00000000000013000000000000000013
#04215:00000000001400000000000000001300
#04218:00000000000014000000000000000013
#0421a:14
#04217:00140000000000000000150000000000
#04214:00001400000000000015001500000000
#04212:00141313
#0421b:00001313
#0431b:13000000001300001300001300000000
#04315:13000013000013000000000000000000
#04318:00001300130000130000000000000000
#04312:00130000130000001300000000000000
#04316:00000000000000000000001300000000
#04816:14000000000000001300000014000014
#0481a:0000000000000014
#04812:000000000000000000000000000000000000000000140000000000000000000013000000000000140000000000000000
#0481b:0013
#04814:000000000000000000140000000000000000000000000000000000001300000000000000000000000000000000000000
#04819:000000000000000000140000000013000000000000000000
#04817:000000140000000000000000000000001300000000000000
#04815:00140000000000000000000000000000
#04818:00140000
#04813:00000000001400000000000000000000
#0511b:1313
#05117:00000013000000000000000000000000
#05112:13
#05116:000000000000000000000000000000000000000000000000000000000000000000000000000000000000000000000000000000000000000000000000000000000000000000000000000000000000000000000000000000000000000000000000000000000000000000000000000000000000000000000000000000000000000000000000000000000000000000000000000000000000000000000000000000000000000000000000000000000000000000000000000000000000000000000000000000000000000000000000000000000000000000000000000000000000000000000000000000000000000000000000000000000000000000000000000000000000000000000000000000000000000000000000000000000000000000000000000000000000000000000000000000000000000000000000000000000000000000000000000000000000000000000000000000000000000000000000000000000000000000000000001300000000000000000000000000000000000000000000000000000000000000000000000000000000000000000000000000000000000000000000000000000000000000000000000000000000000000000000000000000000000000000000000000000000000000000000000000000000000000000000000000000000000000000000000000000000000000000000000000000000000000000000000000000000000000000000000000000000000000000000000000000000000000000000000000000000000000000000000000000000000000000000000000000000000000000000000000000000000000000000000000000000000000000000000000000000000000000000000000000000000000000000000000000000000000000000000000000000000000000000000000000000000000000000000000000000000000000000000000000000000000000000000000000000000000000000000000000000000000000000000000000000000000000000000000000000000000000000000000000000000000000000000000000000000000000000000000000000000000000000000000000000000000000000000000000000000000000000000000000000000000000000000000000000000000000000000000000000000000000000000000000000000000000000000000000000000000000000000000000000000000000000000000000000000000000000000000000000000000000000000000000000000000000000000000000000000000000000000000000000000000000000000000000000000000000000000000000000000000000000000000000000000000000000000000000000000000000000000000000000000000000000000000000000000000000000000000000000000000000000000000000000000000000000000000000000000000000000000000000000000000000000000000000000000000000000000000000000000000000000000000000000000000000000000000000000000000000000000000000000000000000000000000000000000000000000000000000000000000000000000000000000000000000000000000000000000000000000000000000000000000000000000000000000000000000000000000000000000000000000000000000000000000000000000000000000000000000000000000000000000000000000000000000000000000000000000000000000000000000000000000000000000000000000000000000000000000000000000000000000000000000000000000000000000000000000000000000000000000000000000000000000000000000000000000000000000000000000000000000000000000000000000000000000000000000000000000000000000000000000000000000000000000000000000000000000000000000000000000000000000000000000000000000000000000000000000000000000000000000000000000000000000000000000000000000000000000000000000000000000000000000000000000000000000000000000000000000000000000000000000000000000000000000000000000000000000000000000000000000000000000000000000000000000000000000000000000000000000000000000000000000000000000000000000000000000000000000000000000000000000000000000000000000000000000000000000000000000000000000000000000000000000000000000000000000000000000000000000000000000000000000000000000000000000000000000000000000000000000000000000000000000000000000000000000000000000000000000000000000000000000000000000000000000000000000000000000000000000000000000000000000000000000000000000000000000000000000000000000000000000000000000000000000000000000000000000000000000000000000000000000000000000000000000000000000000000000000000000000000000000000000000000000000000000000000000000000000000000000000000000000000000000000000000000000000000000000000000000000000000000000000000000000000000000000000000000000000000000000000000
#05114:000000000000000000000000003333000000003333000000
#05119:000000000000000000000000000000003333000000003333
#05215:0013000000000000
#05218:00000013000000000000000000000000
#05216:00000000000000130000130000000000
#05212:1500131300001300
#0521b:0000130013000013
#05217:00000000001300000013000000000000
#05315:00130000160013000000130000001300
#05318:00001300000000130013000013000013
#05312:23000013000000001300001300000000
#0531b:23000000001300001300000000000000
#05415:13000013000000001300130000001300
#05412:0013130000000000
#0541b:1300001313001300
#05418:00000000130000130000000000000000
#0551b:0013000000000013
#05518:16000000000013000000141400000000
#05512:0016000000000013
#05515:0000001300000000
#05514:00000000000000000000141400000000
#05712:23000000001300001300000000001300
#05715:00001300160000130013000013000013
#0571b:23000013000000001300001300000000
#05718:00130000000013000000130000000000
#05818:13000013000000130000160016001300
#05815:0013001300130000
#05812:1300130016001316
#0581b:00000000001300001300000000000000
#05919:0000000000000013
#05914:0000000000000013
#05912:1913001300130000
#05915:00001900000000001300001300000000
#0591b:1300001300130000
#05918:00000000000000130000000013000000
#06018:00000000000000000000130000130000
#06015:00000015000000150000000013000000
#06016:00000000001500000000000000000000
#06012:1c000013000000130000000000001300
#0601b:00000000001300000000001300000000
#06117:13000013001300000000000000000000
#06112:13000000001300001300000000000000
#06116:00000000000000130000000000000000
#0611b:00130000000000130000000000000000
#06212:0012
#0621a:00000000000000000000001200000000
#0621c:0000000000000012
#06217:00120000
#06218:0012
#06214:00000000000000000000001200000000
#06216:0000000000000012
#0621f:11
#06318:0012000000000000
#0631a:00000000121200000000000000001200
#06314:00000000121200000000000000001200
#06316:00000000000000120000000000000000
#0631c:00000000000000120000000000000000
#06416:1200001212000000
#0641c:00000012000000001200000000000000
#0641a:00000000000000000000001200000000
#06414:00000000000000000000001200000000
#06412:0012000000000012
#06418:1200000000000012
#06512:0012
#06514:0000000000120000
#06516:00120000000000000000000012000000
#06518:0000000012000012
#0651c:00120000000000000000000012000000
#07915:00140000000000000000000000001616
#07912:14001313
#07918:0014000000000000
#0791a:00140000
#07917:00000000001400000015001500000000
#07914:0000001400150000
#0791b:00001313
#08212:0000001713000000
#08215:14
#08217:0000140000001500000016000000170000000013000000000000000000000000
#08214:0015000000000000
#08213:00160000
#0821b:00000000000000001300001300000000
#08216:0000000000000000000000000000000000000000000000000013000000000000
#0831a:00140000
#08316:00000000000000140000000000000000
#08312:00000000000000140000000000000000
#00517:0013131300000000
#0051b:00000000130000001300001300000000
#00512:0000000013000000000000001300000000000000000000000013000000000000
#00516:00000000000000001300131300000000
#00519:0000000000000013
#00518:26000000000000000013000000000000
#0061b:0013000000000000
#00614:00130000
#00612:0000001313000013
#00616:0013000000000000
#00617:0000001300000000
#00619:00130000
#0001b:00000000000000000013000000000000
#00012:2c000000000000240000130024000000
#00018:0000000000000013
#00017:00000000000000000013000000000000
#00015:00000000000000000000000000000013
#00016:0000240000130000
#0001a:00000000000000240000000024000000
#00014:0028000000000000
#0181b:0013
#01817:0000001300130000
#01816:0013000013000000
#01812:0000000000130000
#01819:00000000130000000000000000000033
#01815:13
#01319:00151515
#01312:23000000000000150000001500001500
#01315:0013000000000000
#01318:0013000000000000
#01316:00000000001414000014140000140000
#0131b:23
#01415:0019000000000000
#01412:00130015001700180000130000000000
#01417:00170000
#01419:0000001500000000
#0141b:00000000000000001300001300000000
#01515:0000000013000013
#01518:00000012000000000000001300000013
#01512:0000000012000000000000000000000000000013000000000000000000000000
#0151a:00120000
#0151c:0000001200000000
#01516:0000001200000000
#0151b:0013
#01612:13000013000013001300160013000000
#0161b:13001300000013000013000013000000
#01618:00000000160000001300001300000000
#01615:00001300001300000000000000000000
#0411b:13
#04112:00001300000013000016002600000016
#04117:0013001300000000
#04116:13130000
#04118:0000000026001626
#07415:2913000000000000
#07416:00000000000000001414140000000000
#07412:00002300230000000014000000001300
#0741a:00000000000000001400001400000000
#0501b:13000013000000001300000013000000
#05012:13000000130000001300001300000000
#05018:00130000001300130000130000001300
#05015:00001300000013000013000000130013
#0451b:2313130000131300
#04515:00000013001600000016001300160000
#04512:23000000000000130000000000000013
#04518:0000001313000013
#04510:41
#04712:1c14
#0471a:000000000000000000003300000000000000000000003300000000140000000000000000000000000000000000000000
#04713:000000000000000033000000000000140000000000000000
#04719:00000000000000000000001400000000
#04714:00000014
#04718:000000000000000033000000000000000000000033000000000000000000000000000000000000140000000000000000
#04715:000000000000003300000000000000000000000000140000
#04717:00000000000000000000000000000014
#0561b:1313
#05612:00160000130000001300000000000000
#05618:00001300001600130000000000000000
#05615:00000013000013000000000000000000
#04912:13130000
#04916:0000000000000013
#0491b:00000013
#0661c:0012
#06614:00000000000000000000001200000000
#06612:0000000000000012
#06617:00120000
#06616:0012
#0661a:12000000000000000000001200000000
#06618:0000000000000012
#06716:0012000000000000
#06714:00000000121200000000000000001200
#0671a:00000000121200000000000000001200
#06718:00000000000000120000000000000000
#06712:00000000000000120000000000000000
#06818:1200001212000000
#06812:00000012000000001200000000000000
#06814:00000000000000000000001200000000
#0681a:00000000000000000000001200000000
#0681c:0012000000000012
#06816:1200000000000012
#06918:00120000000000000000000000000000
#06912:00120000000000000000000000000000
#0691b:0013
#03612:13000000000000000000000000000013
#03614:00001300000000000000001300000000
#0361b:0000001300000000
#03618:0016
#03617:0000000000160000
#03616:00000016
#03615:00000000000000000013000000001600
#03613:00000000000000000000000000130000
#00716:0013131300000000
#00712:00000000130000001300001300000000
#0071b:0000000013000000000000001300000000000000000000000013000000000000
#00717:00000000000000001300131300000000
#00714:0000000000000013
#00715:00000000000000000013000000000000
#02116:2313131300131313
#0211b:1300000013000013
#02112:0013001300130000
#0231b:13
#02312:0000131400000000
#02316:00000000000000140000140000001400
#02314:0014
#02318:00000000000000000014000014000000
#0231a:00000000000000000000001400000000
#02319:00000033000000000000000000000000
#02415:0000000000130000
#02413:00000013
#02416:0000000000000013
#02412:00000000000000130000000000000000
#02414:00320000
#02419:00320000
#02217:0013000013000000
#02214:00000000130000000000000000000033
#02216:0000001300130000
#02218:13
#02212:0013
#0221b:0000000000130000
#03212:0016
#03213:0000000000160000
#03214:00000016
#03215:0000000000000016
#03218:00000000000000000013000000000000
#03219:00000000000000000000001300000000
#0321a:00000000000000000000000000130000
#0321b:00000000000000000000000000000013
#03715:0000000013130000
#03716:230000000000000000000000000000000000000000000000000000000000000000000000000000000000000000000000000000000000000000000000000000000000000000000000000000000000000000000000000000000000000000000000000000000000000000000000000000000000000000000000000000000000000000000000000000000000000000000000000000000000000000000000000000000000000000000000000000000000000000000000000000000000000000000000000000000000000000000000000000000000000000000000000000000000000000000000000000000000000000000000002300000000000000000000000000000000000000000000000000000000000000000000000000000000000000000000000000000000000000000000000000000000000000000000000000000000000000000000000000000000000000000000000000000000000000000000000000000000000000000000000000000000000000000000000000000000000000000000000000000000000000000000000000000000000000000000000000000000000000000000000000000000000000000000000000000000000000000000000000000000000000000000000000000000000000000000000000000000000000000000000000000000000000000000000000000000000000000000000000000000000000000000000000000000000000000000000000000000000000000000000000000000000000000000000000000000000000000000000000000000000000000000000000000000000000000000000000000000000000000000000000000000000000000000000000000000000000000000000000000000000000000000000000000000000000000000000000000000000000000000000000000000000000000000000000000000000000000000000000000000000000000000000000000000000000000000000000000000000000000000130000000000000000000000000000000000000000000000000000000000000000000000000000000000000000000000000000000000000000000000000000000000000000000000000000000000000000000000000000000000000000000000000000000000000000000000000000000000000000000000000000000000000000000000000000000000000000000000000000000000000000000000000000000000000000000000000000000000000000000000000000000000000000000000000000000000000000000000000000000000000000000000000000000000000000000000000000000000000000000000000000000000000000000000000000000000000000000000000000000000000000000000000000000000000000000000000000000000000000000000000000000000000000000000000000000000000000000000000000000000000000000000000000000000000000000000000000000000000000000000000000000000000000000000000000000000000000000000000000000000000000000000000000000000000000000000000000000000000000000000000000000000000000000000000000000000000000000000000000000000000000000000000000000000000000000000000000000000000000000000000000000000000000000000000000000000000000000000000000000000000000000000000000000000000000000000000000000000000000000000000000000000000000000000000000000000000000000000000000000000000000000000000000000000000000000000000000000000000000000000000000000000000000000000000000000000000000000000000000000000000000000000000000000000000000000000000000000000000000000000000000000000000000000000000000000000000000000000000000000000000000000000000000000000000000000000000000000000000000000000000000000000000000000000000000000000000000000000000000000000000000000000000000000000000000000000000000000000000000000000000000000000000000000000000000000000000000000000000000000000000000000000000000000000000000000000000000000000000000000000000000000000000000000000000000000000000000000000000000000000000000000000000000000000000000000000000000000000000000000000000000000000000000000000000000000000000000000000000000000000000000000000000000000000000000000000000000000000000000000000130000000000000000000000000000000000000000000000000000000000000000000000000000000000000000000000000000000000000000000000000000000000000000000000000000000000000000000000000000000000000000000000000000000000000000000000000000000000000000000000000000000000000000000000000000000000000000000000000000000000000000000000000000000000000000000000000000000000000000000000000000000000000000000000000000000000000000000000000000000000000000000000000000000000000000000000000000000000000000000000
#03712:00000000000000000013000000001300
#0371b:2300001313000000
#03718:00000000000000000013000000000000
#03717:00000000000000000000001300000000
#03917:13
#03916:0000000000000000130000001300000023000013000000000013000000000000
#0391b:1300001300000000
#03918:0013000000000000
#03912:00000000000000001333331333332300
#03919:00000000000000000000002500000000
#03915:0000000000000029
#03817:00001300000000130000000017001300
#0381b:0000000000000000130013000000000000130000000000000000000000000000
#03815:13
#03812:00000000000000130000130000001300
#0801b:13130000
#08015:00001300000000130000000000001616
#08018:00000013000013000000000000000000
#08012:1313
#07016:00000000000000001414140000000000
#0701b:0023230000000013
#07012:29000000000000001400001400000000
#0701a:00000000000000000014000000000000
#07018:0013000000000000
#0701f:21
#0711b:00001300000000130000000000001300
#07112:0000000000000000130013000000000000130000000000001300000000000000
#07116:13000000000000130000000000001300
#07117:0000000000000000130013000000000000130000000000001300000000000000
#07110:41
#07217:0013001300000000
#07212:1300131300000026
#07216:0023
#07214:00000000000000000000002400000000
#0721a:00000000000000000000002400000000
#0721b:0023
#07218:0000000000000026
#07312:13000000000000130000000000000000
#07314:0013000000000000
#0731b:00000013000013000000000000000000
#07317:13
#0731a:00130000000000000000000000000000
#07318:0013000000000000
#07313:00000000001300000000000000000000
#07315:0000001300000000
#07316:00130000
#07512:00001300000000130000000000001300
#0751b:0000000000000000130013000000000000130000000000001300000000000000
#07517:13000000000000130000000000001300
#07516:0000000000000000130013000000000000130000000000001300000000000000
#07616:0013001300000000
#0761b:1300131300000000
#07617:0023
#07618:00000000000000000000002400002600
#07612:00000000000000002300002400002600
#07712:1313000013130000
#07715:00140000000000000014000000000000
#07719:0013000000130013
#0771b:0000131300001300
#07716:00000000000000000000000000130000
#07717:00000000001400000000000000000000
#07714:00000000000013000000000000000013
#07812:1300000026001626
#0781b:0013001300000000
#07816:0013001300000000
#07817:13130000
#07818:00000000000000000016002600000016
#08112:13130000
#08119:00001300000000130000000000000000
#08114:00000013000013000000000000000000
#0811b:1313
#08117:00000000000000000000000000000013
#08116:0000000000000013
#00317:0013000000000000
#0031b:00000000000013001300001300000000
#00312:00001300000000000000001300001300
#00316:0000001313000000
#00318:0000000000130000
#00314:00130000
#04615:00000000001600000000000000160000
#04612:00000000000000160000000000000016
#04618:1313
#0461b:0013000000130000
#0085c:0062
#00857:00000023
#00852:0052
#00856:000000000000000000000000000000000000000000000000000000000000000000000000000000000000000000000000000000000000000000000000000000000000000000000000000000000000000000000000000000000000000000000000000000000000000000000000000000000000000000000000000000000000000000000000000000000000000000000000000000000000000000000000000000000000000000000000000000000000000000000000000000000000000000000000000000000000000000000000000000000000000000000000000000000000000000000000000000000000000000000000000000000000000000000000000000000000000000000000000000000000000000000000000000000000000000000000000000000000000000000000000000000000000000000000000000000000000000000000000000000000000000000000000000000000000000000000000000000000000000000000000000000000000000000000000000000000000000000000000000000000000000000000000000000000000000000000000000000000000000000000000000000000000000000000000000000000000000000000000000000000000000000000000000000000000000000000000000000000000000000000000000000000000000000000000000000000000000000000000000000000000000000000000000000000000000000000000000000000000000000000000000000000000000000000000000000000000000000000000000000000000000000000000000000000000000000000000000000000000000000000000000000000000000000000000000000000000000000000000000000000000000000000000000000000000000000000000000000000000000000000000000000000000000000000000000000000000000000000000000000000000000000000000000000000000000000000000000000000000000000000000000000000000000000000000000000000000000000000000000000000000000000000000000000000000000000000000000000000000000000000000000000000000000000000000000000000000000000000000000000000000000000000000000000000000000000000000000000000000000000000000000000000000000000000000000000000000000000000000000000000000000000000000000000000000000000000000000000000000000000000000000000000000000000000000000000000000000000000000000000000000000000000000000000000000000000000000000000000000000000000000000000000000000000000000000000000000000000000000000000000000000000000000000000000000000000000000000000000000000000000000000000000000000000000000000000000000000000000000000000000000000000000000000000000000000000000000000000000000000000000000000000000000000000000000000000000000000000000000000000000000000000000000000000000000000000000000000000000000000000000000000000000000000000000000000000000000000000000000000000000000000000000000000000000000000000000000000000000000000000000000000000000000000000000000000000000000000000000000000000000000000000000000000000000000000000000000000000000000000000000000000000000000000000000000000000000000000000000000000000000000000000000000000000000000000000000000000000000000000000000000000000000000000000000000000000000000000000000000000000000000000000000000000000000000000000000000000000000000000000000000000000000000000000000000000000000000000000000000000000000000000000000000000000000000000000000000000000000000000000000002300000000000000000000000000000000000000000000000000000000000000000000000000000000000000000000000000000000000000000000000000000000000000000000000000000000000000000000000000000000000000000000000000000000000000000000000000000000000000000000000000000000000000000000000000000000000000000000000000000000000000000000000000000000000000000000000000000000000000000000000000000000000000000000000000000000000000000000000000000000000000000000000000000000000000000000000000000000000000000000000000000000000000000000000000000000000000000000000000000000000000000000000000000000000000000000000000000000000000000000000000000000000000000000000000000000000000000000000000000000000000000000000000000000000000000000000000000000000000000000000000000000000000000000000000000000000000000000000000000000000000000000000000000000000000000000000000000000000000000000000000000000000000000000000000000000000000000000000000000000000000000000000000000000000000000000000000000000000000000000
#00152:00000000000000000000005300000000
#00157:0053
#0015b:0000000000000013
#0055b:0053
#00556:00000000000000000000005300004300
#00552:0000000000000000000000000000000000000000000000000023000000000000
#00558:00000000000000000023000000000000
#01757:0023630000231353
#01752:5300000053000013
#0175b:0000002300000000
#0185b:0053
#01857:0000000000230000
#01856:0063000063000000
#01852:0000000000230000
#0195a:0000000000000014
#01956:43
#01957:00330000
#01954:00000054
#03357:000000000000000000000000000000000000000000000000000000000000000000000000000000000000000000000000000000000000000000000000000000000000000000000000000000000000000000000000000000000000000000000000000000000000000000000000000000000000000000000000000000000000000000000000000000000000000000000000000000000000000000000000000000000000000000000000000000000000000000000000000000000000000000000000000000000000000000000000000000000000000000000000000000000000000000000000000000000000000000000000006300000000000000000000000000000000000000000000000000000000000000000000000000000000000000000000000000000000000000000000000000000000000000000000000000000000000000000000000000000000000000000000000000000000000000000000000000000000000000000000000000000000000000000000000000000000000000000000000000000000000000000000000000000000000000000000000000000000000000000000000000000000000000000000000000000000000000000000000000000000000000000000000000000000000000000000000000000000000000000000130000000000000000000000000000000000000000000000000000000000000000000000000000000000000000000000000000000000000000000000000000000000000000000000000000000000000000000000000000000000000000000000000000000000000000000000000000000000000000000000000000000000000000000000000000000000000000000000000000000000000000000000000000000000000000000000000000000000000000000000000000000000000000000000000000000000000000000000000000000000000000000000000000000000000000000000000000000000000000000000000000000000000000000000000000000000000000000000000000000000000000000000000000000000000000000000000000000000000000000000000000000000000000000000000000000000000000000000000000000000000000000000000000000000000000000000000000000000000000000000000000000000000000000000000000000000000000000000000000000000000000000000000000000000000000000000000000000000000000000000000000000000000000000000000000000000000000000000000000000000000000000000000000000000000000000000000000000000000000000000000000000000000000000000000000000000000000000000000000000000000000000000000000000000000000000000000000000000000000000000000000000000000000000000000000000000000000000000000000000000000000000000000000000000000000000000000000000000000000000000000000000000000000000000000000000000000000000000000000000000000000000000000000000000000000000000000000000000000000000000000000000000000000000000000000000000000000000000000000000000000000000000000000000000000000000000000000000000000000000000000000000000000000000000000000000000000000000000000000000000000000000000000000000000000000000000000000000000000000000000000000000000000000000000000000000000000000000000000000000000000000000000000000000000000000000000000000000000000000000000000000000000000000000000000000000000000000000000000000000000000000000000000000000000000000000000000000000000000000000000000000000000000000000000000000000000000000000000000000000000000000000000000000000000000000000000000000000000000000000000000000000000000000000000000000000000000000000000000000000000000000000000000000000000000000000000000000000000000000000000000000000000000000000000000000000000000000000000000000000000000000000000000000000000000000000000000000000000000000000000000000000000000000000000000000000000000000000000000000000000000000000000000000000000000000000000000000000000000000000000000000000000000000000000000000000000000000000000000000000000000000000000000000000000000000000000000000000000000000000000530000000000000000000000000000000000000000000000000000000000000000000000000000000000000000000000000000000000000000000000000000000000000000000000000000000000000000000000000000000000000000000000000000000000000000000000000000000000000000000000000000000000000000000000000000000000000000000000000000000000000000000000000000000000000000000000000000000000000000000000000000000000000000000000000000000000000000000000000000000000000000000000000000000000000000000000000000000000000000000000
#03358:0000000000230000
#0335b:00000000130000000053004300000000
#0285b:0023000000000000
#02857:63
#02855:0013
#02858:00000013
#0515b:63
#05157:00000023000000000000000000000000
#05152:53
#05156:000000000000000000000000000000000000000000000000000000000000000000000000000000000000000000000000000000000000000000000000000000000000000000000000000000000000000000000000000000000000000000000000000000000000000000000000000000000000000000000000000000000000000000000000000000000000000000000000000000000000000000000000000000000000000000000000000000000000000000000000000000000000000000000000000000000000000000000000000000000000000000000000000000000000000000000000000000000000000000000000000000000000000000000000000000000000000000000000000000000000000000000000000000000000000000000000000000000000000000000000000000000000000000000000000000000000000000000000000000000000000000000000000000000000000000000000000000000000000000000000002300000000000000000000000000000000000000000000000000000000000000000000000000000000000000000000000000000000000000000000000000000000000000000000000000000000000000000000000000000000000000000000000000000000000000000000000000000000000000000000000000000000000000000000000000000000000000000000000000000000000000000000000000000000000000000000000000000000000000000000000000000000000000000000000000000000000000000000000000000000000000000000000000000000000000000000000000000000000000000000000000000000000000000000000000000000000000000000000000000000000000000000000000000000000000000000000000000000000000000000000000000000000000000000000000000000000000000000000000000000000000000000000000000000000000000000000000000000000000000000000000000000000000000000000000000000000000000000000000000000000000000000000000000000000000000000000000000000000000000000000000000000000000000000000000000000000000000000000000000000000000000000000000000000000000000000000000000000000000000000000000000000000000000000000000000000000000000000000000000000000000000000000000000000000000000000000000000000000000000000000000000000000000000000000000000000000000000000000000000000000000000000000000000000000000000000000000000000000000000000000000000000000000000000000000000000000000000000000000000000000000000000000000000000000000000000000000000000000000000000000000000000000000000000000000000000000000000000000000000000000000000000000000000000000000000000000000000000000000000000000000000000000000000000000000000000000000000000000000000000000000000000000000000000000000000000000000000000000000000000000000000000000000000000000000000000000000000000000000000000000000000000000000000000000000000000000000000000000000000000000000000000000000000000000000000000000000000000000000000000000000000000000000000000000000000000000000000000000000000000000000000000000000000000000000000000000000000000000000000000000000000000000000000000000000000000000000000000000000000000000000000000000000000000000000000000000000000000000000000000000000000000000000000000000000000000000000000000000000000000000000000000000000000000000000000000000000000000000000000000000000000000000000000000000000000000000000000000000000000000000000000000000000000000000000000000000000000000000000000000000000000000000000000000000000000000000000000000000000000000000000000000000000000000000000000000000000000000000000000000000000000000000000000000000000000000000000000000000000000000000000000000000000000000000000000000000000000000000000000000000000000000000000000000000000000000000000000000000000000000000000000000000000000000000000000000000000000000000000000000000000000000000000000000000000000000000000000000000000000000000000000000000000000000000000000000000000000000000000000000000000000000000000000000000000000000000000000000000000000000000000000000000000000000000000000000000000000000000000000000000000000000000000000000000000000000000000000000000000000000000000000000000000000000000000000000000000000000000000000000000000000000000000000000000000000000000000000000000000000000000000000000000000000000000000000000000000000000000000000000000000000000000000000000000000000000000000000000000000000000
#05256:00000000000000230000630000000000
#05252:3500006300002300
#05257:00000000002300000023000000000000
#0525b:00535300
#05552:0036000000000000
#05558:4600005300000000
#05555:0000005300000000
#05852:0016
#05858:00000016
#01056:0000000000000014
#01158:0000001253000000
#0115c:0012000000000000
#01154:00120000
#0115b:0000000000000000000000000000000000000023000000000000000000000000
#01352:0000000000000015
#01355:0063000000000000
#03557:0000000000000000000000000000000033000023000000000023000000000000
#03552:00000000000000000000003500003900
#03556:63
#0355b:00000000000000006300006300004300
#03456:00000000000000530000430000000000
#03452:0000000000000000000000000000000000230000000000000000000000000000
#0345b:0000000000430000
#0415b:53
#04157:0023000000000000
#04158:0000000016000016
#04152:00000000000000000000001600000000
#04352:0000130063000033
#04356:00000000000000000000002300000000
#0435b:13000000000000001300002300000000
#08252:00000000000000005300003300000000
#0825b:00000000000000004300006300004300
#08257:0000000000000000000000000000000000000023000000000000000000000000
#08256:0000000000000000000000000000000000000000000000000023000000000000
#07455:6923490000000000
#07452:00000000330000000064003400000000
#07456:0000000000240000
#0745a:00000000000000000000004400000000
#02652:63000033000063000000000000000000
#02656:0000002300000000000000000000000000000000000000000000000000000000
#0265b:00000053000043000000000000000000
#02657:4300000000000000002300000000000000002300000000000000000000000000
#04457:00000012
#06055:00000045000000450000000000000000
#06056:00000000003500000000000000000000
#06152:00000013000000001300000000000000
#0615b:00130000000000000000000000000000
#06157:00000000001300000000000000000000
#0535b:0000000053430000
#05355:0000000000534300
#05358:00000000000000000023000000000000
#05352:00000000000000004300002300000000
#0575b:00000000000000003300002300000000
#05758:0000000000633300
#05755:00000000000000000023000000000000
#05752:0000000063330000
#05455:0000000000630063
#0545b:00006363
#0565b:1313
#05652:00130000
#05952:39
#05955:0049000000000000
#0495b:0000004300000000
#04952:33
#06256:0000000000000062
#06356:00000000000000220000000000000000
#0635c:00000000000000220000000000000000
#06452:0022000000000062
#0645c:00000022000000000000000000000000
#06456:62
#06458:6200000000000062
#06556:00220000000000000000000000000000
#0655c:00220000000000000000000000000000
#06658:0000000000000052
#06758:00000000000000220000000000000000
#06752:00000000000000220000000000000000
#0685c:0022000000000052
#06858:52
#06856:5200000000000052
#06852:00000022000000000000000000000000
#06958:00220000000000000000000000000000
#06952:00220000000000000000000000000000
#0025b:0000000000000013
#0255a:64
#02552:00000000002400000000000000000000
#0255b:00000053
#02758:0000000000000000000000000000000000230000000000000000000000000000
#0275b:00000000000000530000000000000000
#02955:13
#0295b:00000000000000000000004300000000
#03055:00000000000000000000005300000000
#03058:00000000000000000000006300000000
#03052:00000033000000000000000000001300
#0305b:0000000000000013
#00652:0000000000000013
#0095b:0000000000000043
#01454:0000000000000013
#01459:0000000000000013
#0145b:0053
#01552:0000000012000000000000000000000000000023000000000000000000000000
#0155a:00120000
#01556:0000001200000000
#01555:0063
#0205b:00000000000000130000000000000000
#02058:0000000000130000
#0205a:00000013
#02057:0000000000000013
#02156:0023530000231363
#0215b:6300000063000013
#02152:0000002300000000
#02455:0000000000130000
#02453:00000013
#02456:0000000000000013
#02452:00000000000000130000000000000000
#02257:0053000053000000
#02252:0063
#02256:0000000000230000
#0225b:0000000000230000
#02358:00000064
#02352:0000000000000014
#02357:33
#02356:00430000
#03756:000000000000000000000000000000000000000000000000000000000000000000000000000000000000000000000000000000000000000000000000000000000000000000000000000000000000000000000000000000000000000000000000000000000000000000000000000000000000000000000000000000000000000000000000000000000000000000000000000000000000000000000000000000000000000000000000000000000000000000000000000000000000000000000000000000000000000000000000000000000000000000000000000000000000000000000000000000000000000000000000005300000000000000000000000000000000000000000000000000000000000000000000000000000000000000000000000000000000000000000000000000000000000000000000000000000000000000000000000000000000000000000000000000000000000000000000000000000000000000000000000000000000000000000000000000000000000000000000000000000000000000000000000000000000000000000000000000000000000000000000000000000000000000000000000000000000000000000000000000000000000000000000000000000000000000000000000000000000000000000000130000000000000000000000000000000000000000000000000000000000000000000000000000000000000000000000000000000000000000000000000000000000000000000000000000000000000000000000000000000000000000000000000000000000000000000000000000000000000000000000000000000000000000000000000000000000000000000000000000000000000000000000000000000000000000000000000000000000000000000000000000000000000000000000000000000000000000000000000000000000000000000000000000000000000000000000000000000000000000000000000000000000000000000000000000000000000000000000000000000000000000000000000000000000000000000000000000000000000000000000000000000000000000000000000000000000000000000000000000000000000000000000000000000000000000000000000000000000000000000000000000000000000000000000000000000000000000000000000000000000000000000000000000000000000000000000000000000000000000000000000000000000000000000000000000000000000000000000000000000000000000000000000000000000000000000000000000000000000000000000000000000000000000000000000000000000000000000000000000000000000000000000000000000000000000000000000000000000000000000000000000000000000000000000000000000000000000000000000000000000000000000000000000000000000000000000000000000000000000000000000000000000000000000000000000000000000000000000000000000000000000000000000000000000000000000000000000000000000000000000000000000000000000000000000000000000000000000000000000000000000000000000000000000000000000000000000000000000000000000000000000000000000000000000000000000000000000000000000000000000000000000000000000000000000000000000000000000000000000000000000000000000000000000000000000000000000000000000000000000000000000000000000000000000000000000000000000000000000000000000000000000000000000000000000000000000000000000000000000000000000000000000000000000000000000000000000000000000000000000000000000000000000000000000000000000000000000000000000000000000000000000000000000000000000000000000000000000000000000000000000000000000000000000000000000000000000000000000000000000000000000000000000000000000000000000000000000000000000000000000000000000000000000000000000000000000000000000000000000000000000000000000000000000000000000000000000000000000000000000000000000000000000000000000000000000000000000000000000000000000000000000000000000000000000000000000000000000000000000000000000000000000000000000000000000000000000000000000000000000000000000000000000000000000000000000000000000000000000000000000630000000000000000000000000000000000000000000000000000000000000000000000000000000000000000000000000000000000000000000000000000000000000000000000000000000000000000000000000000000000000000000000000000000000000000000000000000000000000000000000000000000000000000000000000000000000000000000000000000000000000000000000000000000000000000000000000000000000000000000000000000000000000000000000000000000000000000000000000000000000000000000000000000000000000000000000000000000000000000000000
#03755:0000000000230000
#03752:00000000130000000063003300000000
#03957:53
#03952:00000000000000005300005300003300
#03956:0000000000000000000000000000000043000023000000000023000000000000
#03959:00000000000000000000004500000000
#03955:0000000000000049
#03857:00000000000000630000330000000000
#0385b:0000000000000000000000000000000000230000000000000000000000000000
#03852:0000000000330000
#08057:00000000000000000000004300000000
#08052:00000000000000000000004300000000
#08356:00000000000000244400000000000000
#0835a:0044
#08352:00000000000000240000000000000000
#07056:0000000000240000
#0705a:00000000000000000054004400000000
#07052:59000000390000000000003400000000
#07058:0023000000000000
#0705b:00430000
#07256:0033
#07254:00000000000000000000003400000000
#07252:0000000000000036
#0715b:00000000000000530000430000000000
#07157:0000000000000000000000000000000000230000000000000000000000000000
#07152:0000000000000000000000000000000000230000000000000000000000000000
#07156:00000000000000530000430000000000
#07357:53
#0735a:00530000000000000000000000000000
#07358:0053000000000000
#0735b:00000053000000000000000000000000
#07353:00000000005300000000000000000000
#07355:0000005300000000
#07352:00000000000000530000000000000000
#07356:00530000
#07556:0000000000000000000000000000000000230000000000000000000000000000
#07552:00000000000000630000330000000000
#0755b:0000000000000000000000000000000000230000000000000000000000000000
#07557:00000000000000630000330000000000
#07657:0043
#07658:00000000000000000000004400004600
#07852:6300000016000016
#07856:0023000000000000
#07858:00000000000000000000001600000000
#08156:00000000000000000000003300000000
#0815b:00000000000000000000003300000000
#01252:3636
#01258:00460046
#0035b:00000000000000000000006300000000
#00352:0000000000000013
#00356:0063
#00752:0063
#00757:00000000000000000000006300003300
#0075b:0000000000000000000000000000000000000000000000000023000000000000
#00755:00000000000000000023000000000000
#0165b:00000043
#01652:00000033
#0405b:0013000000130000
#04052:0000001300000000
#04254:0034000000000000
#04258:0000004400000000
#07958:0044000000000000
#07954:0000003400000000
#07752:0013000000130000
#0775b:0000001300000000
#001370:0013
#0013b0:0000000000230000
#001320:00000000000000000000001300000000
#001370:0000000000000023
#002360:0013
#002320:0000000000230000
#002361:0000000000130000
#0023b1:00000023
#002320:00000013
#002370:0000000000000023
#003360:0013
#003320:0000000000230000
#0033b0:00000000000000000000001300000000
#003360:0000000000000023
#0053b0:0000000013230000
#005380:00000000000000000053000000000000
#005360:00000000000000000000001300002300
#005320:0000000000000000000000000000000000000000000000000053000000000000
#006370:0013
#0063b0:0000000000230000
#006371:0000000000130000
#006321:00000023
#0063b0:00000013
#006360:0000000000000023
#007320:0000000013230000
#007350:00000000000000000053000000000000
#007370:00000000000000000000001300002300
#0073b0:0000000000000000000000000000000000000000000000000053000000000000
#0083c0:0012
#008370:00000053
#0093a0:24
#008321:0012
#008361:000000000000000000000000000000000000000000000000000000000000000000000000000000000000000000000000000000000000000000000000000000000000000000000000000000000000000000000000000000000000000000000000000000000000000000000000000000000000000000000000000000000000000000000000000000000000000000000000000000000000000000000000000000000000000000000000000000000000000000000000000000000000000000000000000000000000000000000000000000000000000000000000000000000000000000000000000000000000000000000000000000000000000000000000000000000000000000000000000000000000000000000000000000000000000000000000000000000000000000000000000000000000000000000000000000000000000000000000000000000000000000000000000000000000000000000000000000000000000000000000000000000000000000000000000000000000000000000000000000000000000000000000000000000000000000000000000000000000000000000000000000000000000000000000000000000000000000000000000000000000000000000000000000000000000000000000000000000000000000000000000000000000000000000000000000000000000000000000000000000000000000000000000000000000000000000000000000000000000000000000000000000000000000000000000000000000000000000000000000000000000000000000000000000000000000000000000000000000000000000000000000000000000000000000000000000000000000000000000000000000000000000000000000000000000000000000000000000000000000000000000000000000000000000000000000000000000000000000000000000000000000000000000000000000000000000000000000000000000000000000000000000000000000000000000000000000000000000000000000000000000000000000000000000000000000000000000000000000000000000000000000000000000000000000000000000000000000000000000000000000000000000000000000000000000000000000000000000000000000000000000000000000000000000000000000000000000000000000000000000000000000000000000000000000000000000000000000000000000000000000000000000000000000000000000000000000000000000000000000000000000000000000000000000000000000000000000000000000000000000000000000000000000000000000000000000000000000000000000000000000000000000000000000000000000000000000000000000000000000000000000000000000000000000000000000000000000000000000000000000000000000000000000000000000000000000000000000000000000000000000000000000000000000000000000000000000000000000000000000000000000000000000000000000000000000000000000000000000000000000000000000000000000000000000000000000000000000000000000000000000000000000000000000000000000000000000000000000000000000000000000000000000000000000000000000000000000000000000000000000000000000000000000000000000000000000000000000000000000000000000000000000000000000000000000000000000000000000000000000000000000000000000000000000000000000000000000000000000000000000000000000000000000000000000000000000000000000000000000000000000000000000000000000000000000000000000000000000000000000000000000000000000000000000000000000000000000000000000000000000000000000000000000000000000000000000000000000000000000000000000005300000000000000000000000000000000000000000000000000000000000000000000000000000000000000000000000000000000000000000000000000000000000000000000000000000000000000000000000000000000000000000000000000000000000000000000000000000000000000000000000000000000000000000000000000000000000000000000000000000000000000000000000000000000000000000000000000000000000000000000000000000000000000000000000000000000000000000000000000000000000000000000000000000000000000000000000000000000000000000000000000000000000000000000000000000000000000000000000000000000000000000000000000000000000000000000000000000000000000000000000000000000000000000000000000000000000000000000000000000000000000000000000000000000000000000000000000000000000000000000000000000000000000000000000000000000000000000000000000000000000000000000000000000000000000000000000000000000000000000000000000000000000000000000000000000000000000000000000000000000000000000000000000000000000000000000000000000000000000000000
#009321:24
#009321:0000001300230000
#009371:0053
#010321:0000000013230000
#0103b1:0000000000001323
#011381:00000000000000001300002300000000
#0113b1:0000000000000000000000000000000000000053000000000000000000000000
#0123b1:13
#012381:0023000000000000
#012321:00130000
#012351:0000002300000000
#0123b1:0013
#012381:0000000000230000
#013351:0013000000000000
#013321:00230000
#0143b1:0013
#014371:0000000000230000
#014391:0000000000001323
#014340:0000000000001323
#015350:00000000000000001300002300000000
#015320:0000000000000000000000000000000000000053000000000000000000000000
#017320:13230000
#017370:0053000000000000
#017371:00132300
#0173b1:0000005300000000
#017320:00001323
#017370:0000000000530000
#017370:0000000000000013
#0183b0:5323000000000000
#018361:0013000000000000
#018321:0000532300000000
#0183b1:00001323
#018371:0000000000330000
#018360:00001323
#018320:0000000000330000
#0183b0:0000000000000013
#018390:00000000000000000000000000000033
#019360:23
#018351:0000000000000013
#018321:00000000000000000000000000000023
#019320:0013000000000000
#019340:00000033000000000000000000000000
#019370:00230000
#019381:0013000000000000
#0193b1:00000023000000000000000000000000
#019340:00000014
#0193a0:0000000000000024
#0203c0:0012000000000000
#0203a0:00000032000000000000000000000000
#020370:00220000
#020371:0012000000000000
#020351:00000032000000000000000000000000
#020321:00220000
#020361:00000000000000130000003300000000
#020321:00003333
#020351:00000000000000000033000000330000
#020331:0000000000330023
#0213b1:13230000
#021361:0053000000000000
#021360:00132300
#021320:0000005300000000
#0213b1:00001323
#021361:0000000000530000
#021361:0000000000000013
#022321:5323000000000000
#022370:0013000000000000
#0223b0:0000532300000000
#022320:00001323
#022360:0000000000330000
#022371:00001323
#0223b1:0000000000330000
#022321:0000000000000013
#022341:00000000000000000000000000000033
#023371:23
#022380:0000000000000013
#0223b0:00000000000000000000000000000023
#0233b1:0013000000000000
#023391:00000033000000000000000000000000
#023361:00230000
#023350:0013000000000000
#023320:00000023000000000000000000000000
#023381:00000014
#023321:0000000000000024
#024321:0012000000000000
#024341:00320000
#024371:00000000002200000000000000000000
#024370:0012000000000000
#024390:00320000
#0243c0:00000000002200000000000000000000
#024370:00000000000000130000003300000000
#0243b0:00003333
#024380:00000000000000000033000000330000
#0243a0:0000000000330023
#0253a0:1424
#025320:00000000005400000000000000000000
#0253b0:00000013
#026370:23
#026321:13000023000000000000000000000000
#026361:0000005300000000000000000000000000000000000000000000000000000000
#0263b0:00000013000023000000000000000000
#026370:0000000000000000005300000000000000000000000000000000000000000000
#026321:0000001300002300
#026371:00000000000000000053000000000000
#0273b1:00000000000000130000230000000000
#027381:0000000000000000000000000000000000530000000000000000000000000000
#027360:0000000000130000
#027320:00000023
#027371:00000013
#0273b1:0000000000000023
#027360:0000000000000013
#028320:23
#028371:13230000
#0283b1:0053000000000000
#0293b1:00000000000000000000132300000000
#030321:00001323000000000000000000000000
#030351:00000000000000000000001300000000
#030321:0000000000000023
#030380:00000000000000000000001300000000
#0303b0:0000000000000023
#0313b0:0000000000000013
#0323b0:5300002300000000
#032380:0033530000000000
#031321:0000000000000013
#032321:5300002300000000
#032351:0033530000000000
#033371:1353000000000000
#0333b1:00230000
#033320:13
#033370:000000000000000000000000000000000000000000000000000000000000000000000000000000000000000000000000000000000000000000000000000000000000000000000000000000000000000000000000000000000000000000000000000000000000000000000000000000000000000000000000000000000000000000000000000000000000000000000000000000000000000000000000000000000000000000000000000000000000000000000000000000000000000000000000000000000000000000000000000000000000000000000000000000000000000000000000000000000000000000000000005300000000000000000000000000000000000000000000000000000000000000000000000000000000000000000000000000000000000000000000000000000000000000000000000000000000000000000000000000000000000000000000000000000000000000000000000000000000000000000000000000000000000000000000000000000000000000000000000000000000000000000000000000000000000000000000000000000000000000000000000000000000000000000000000000000000000000000000000000000000000000000000000000000000000000000000000000000000000000000000230000000000000000000000000000000000000000000000000000000000000000000000000000000000000000000000000000000000000000000000000000000000000000000000000000000000000000000000000000000000000000000000000000000000000000000000000000000000000000000000000000000000000000000000000000000000000000000000000000000000000000000000000000000000000000000000000000000000000000000000000000000000000000000000000000000000000000000000000000000000000000000000000000000000000000000000000000000000000000000000000000000000000000000000000000000000000000000000000000000000000000000000000000000000000000000000000000000000000000000000000000000000000000000000000000000000000000000000000000000000000000000000000000000000000000000000000000000000000000000000000000000000000000000000000000000000000000000000000000000000000000000000000000000000000000000000000000000000000000000000000000000000000000000000000000000000000000000000000000000000000000000000000000000000000000000000000000000000000000000000000000000000000000000000000000000000000000000000000000000000000000000000000000000000000000000000000000000000000000000000000000000000000000000000000000000000000000000000000000000000000000000000000000000000000000000000000000000000000000000000000000000000000000000000000000000000000000000000000000000000000000000000000000000000000000000000000000000000000000000000000000000000000000000000000000000000000000000000000000000000000000000000000000000000000000000000000000000000000000000000000000000000000000000000000000000000000000000000000000000000000000000000000000000000000000000000000000000000000000000000000000000000000000000000000000000000000000000000000000000000000000000000000000000000000000000000000000000000000000000000000000000000000000000000000000000000000000000000000000000000000000000000000000000000000000000000000000000000000000000000000000000000000000000000000000000000000000000000000000000000000000000000000000000000000000000000000000000000000000000000000000000000000000000000000000000000000000000000000000000000000000000000000000000000000000000000000000000000000000000000000000000000000000000000000000000000000000000000000000000000000000000000000000000000000000000000000000000000000000000000000000000000000000000000000000000000000000000000000000000000000000000000000000000000000000000000000000000000000000000000000000000000000000000000000000000000000000000000000000000000000000000000000000000000000000000000000000000000000000000000000000000000000000000000000000000000000000000000000000000000000000000000000000000000000000000000000000000000000000000000000000000000000000000000000000000000000000000000000000000000000000000000000000000000000000000000000000000000000000000000000000000000000000000000000000000000000000000000000000000000000000000000000000000000000000000000000000000000000000000000000000000000000000000000000000000000000000000000000000000000000000000000000000000000000000000000000000000000000000000000
#0333b0:00000000000000000013002300000000
#033380:0000000000530000
#033370:0000000000000013
#034320:5323000000000000
#034370:00000000132300000000000000000000
#034360:00000000000000130000230000000000
#034320:0000000000000000000000000000000000530000000000000000000000000000
#035360:13
#0353b0:0053230000000000
#0353b0:00000000000000001333333333332300
#035370:0000000000000000000000000000000000000053000000000053000000000000
#036370:13
#0363a0:00330000000000000000000000000000
#036380:0033000000000000
#0363b0:00000033000000000000000000000000
#036390:00230000
#036361:00130000
#036331:00000000003300000000000000000000
#036351:0000003300000000
#036321:00000000000000330000000000000000
#036341:0023
#037361:1353000000000000
#037321:00230000
#0373b0:13
#037360:000000000000000000000000000000000000000000000000000000000000000000000000000000000000000000000000000000000000000000000000000000000000000000000000000000000000000000000000000000000000000000000000000000000000000000000000000000000000000000000000000000000000000000000000000000000000000000000000000000000000000000000000000000000000000000000000000000000000000000000000000000000000000000000000000000000000000000000000000000000000000000000000000000000000000000000000000000000000000000000000005300000000000000000000000000000000000000000000000000000000000000000000000000000000000000000000000000000000000000000000000000000000000000000000000000000000000000000000000000000000000000000000000000000000000000000000000000000000000000000000000000000000000000000000000000000000000000000000000000000000000000000000000000000000000000000000000000000000000000000000000000000000000000000000000000000000000000000000000000000000000000000000000000000000000000000000000000000000000000000000230000000000000000000000000000000000000000000000000000000000000000000000000000000000000000000000000000000000000000000000000000000000000000000000000000000000000000000000000000000000000000000000000000000000000000000000000000000000000000000000000000000000000000000000000000000000000000000000000000000000000000000000000000000000000000000000000000000000000000000000000000000000000000000000000000000000000000000000000000000000000000000000000000000000000000000000000000000000000000000000000000000000000000000000000000000000000000000000000000000000000000000000000000000000000000000000000000000000000000000000000000000000000000000000000000000000000000000000000000000000000000000000000000000000000000000000000000000000000000000000000000000000000000000000000000000000000000000000000000000000000000000000000000000000000000000000000000000000000000000000000000000000000000000000000000000000000000000000000000000000000000000000000000000000000000000000000000000000000000000000000000000000000000000000000000000000000000000000000000000000000000000000000000000000000000000000000000000000000000000000000000000000000000000000000000000000000000000000000000000000000000000000000000000000000000000000000000000000000000000000000000000000000000000000000000000000000000000000000000000000000000000000000000000000000000000000000000000000000000000000000000000000000000000000000000000000000000000000000000000000000000000000000000000000000000000000000000000000000000000000000000000000000000000000000000000000000000000000000000000000000000000000000000000000000000000000000000000000000000000000000000000000000000000000000000000000000000000000000000000000000000000000000000000000000000000000000000000000000000000000000000000000000000000000000000000000000000000000000000000000000000000000000000000000000000000000000000000000000000000000000000000000000000000000000000000000000000000000000000000000000000000000000000000000000000000000000000000000000000000000000000000000000000000000000000000000000000000000000000000000000000000000000000000000000000000000000000000000000000000000000000000000000000000000000000000000000000000000000000000000000000000000000000000000000000000000000000000000000000000000000000000000000000000000000000000000000000000000000000000000000000000000000000000000000000000000000000000000000000000000000000000000000000000000000000000000000000000000000000000000000000000000000000000000000000000000000000000000000000000000000000000000000000000000000000000000000000000000000000000000000000000000000000000000000000000000000000000000000000000000000000000000000000000000000000000000000000000000000000000000000000000000000000000000000000000000000000000000000000000000000000000000000000000000000000000000000000000000000000000000000000000000000000000000000000000000000000000000000000000000000000000000000000000000000000000000000000000000000000000000000000000000000000000000000000000000000000000000000000000000
#037320:00000000000000000013002300000000
#037350:0000000000530000
#037360:0000000000000013
#0383b0:5323000000000000
#038360:00000000132300000000000000000000
#038370:00000000000000130000230000000000
#0383b0:0000000000000000000000000000000000530000000000000000000000000000
#039370:13
#039320:0053230000000000
#039320:00000000000000001333333333332300
#039360:0000000000000000000000000000000000000053000000000053000000000000
#0413b0:13230000
#041370:0053000000000000
#043320:0000000013000023
#043360:00000000000000000000005300000000
#0433b1:00000000000000000000001300000000
#043371:0000000000000023
#044361:00122200
#044341:00000000003232320000000000000000
#044380:00122200
#0443a0:00000000003232320000000000000000
#044370:00000000000000000000123222000000
#046320:00162600000000000000000000000000
#046350:00000016260000000000000000000000
#0463b1:00000000132300000000000000000000
#046381:00000000000013230000000000000000
#046321:00000000000000000016260000000000
#046351:00000000000000000000001626000000
#0463b0:00000000000000000000000013230000
#046380:00000000000000000000000000001323
#047360:0013000000000000
#047380:003300000000
#0473a0:000000000033000000000000000000000000000000000000
#0473b0:00230000
#047371:00130000
#047351:000000000000003300000000000000000000000000000000
#047331:003300
#047321:0000002300000000
#047360:0000001300000000
#047380:000000000033000000000000
#0473a0:000000000000000000000033000000000000000000000000
#0473b0:0023
#0493b0:1300002300000000
#049390:005300005300000000000000000053000053000000000000000000000000000000000000000000000000000000000000
#0493a0:005300000000000053000000000000000000000000000000
#049380:00535300535300000000000000000000
#049370:000000000053000053005300005300000000000000000000000000000000000000000000000000000000000000000000
#049360:000000000000005300530053000000000000000000000000000000000000000000000000000000000000000000000000
#049321:0000001300000023
#049341:000000000000000000000000000000000000005300005300000000000000000000000000000053000053000000000000
#049331:000000000053000000005300
#049351:00000000000000535300000053530000
#049361:000000000000000000000000000000000000000000000053000053000000000000005300005300000000000000000000
#049371:000000000000000000000000000000000000000000000000005300005300530053000053000000000000000000000000
#049381:000000000000000000000000000000000000000000000000000000530053005300530000000000000000000000000000
#0513b1:1300002300000000
#051371:00000053000000000000000000000000
#051320:1300002300000000
#051360:000000000000000000000000000000000000000000000000000000000000000000000000000000000000000000000000000000000000000000000000000000000000000000000000000000000000000000000000000000000000000000000000000000000000000000000000000000000000000000000000000000000000000000000000000000000000000000000000000000000000000000000000000000000000000000000000000000000000000000000000000000000000000000000000000000000000000000000000000000000000000000000000000000000000000000000000000000000000000000000000000000000000000000000000000000000000000000000000000000000000000000000000000000000000000000000000000000000000000000000000000000000000000000000000000000000000000000000000000000000000000000000000000000000000000000000000000000000000000000000000005300000000000000000000000000000000000000000000000000000000000000000000000000000000000000000000000000000000000000000000000000000000000000000000000000000000000000000000000000000000000000000000000000000000000000000000000000000000000000000000000000000000000000000000000000000000000000000000000000000000000000000000000000000000000000000000000000000000000000000000000000000000000000000000000000000000000000000000000000000000000000000000000000000000000000000000000000000000000000000000000000000000000000000000000000000000000000000000000000000000000000000000000000000000000000000000000000000000000000000000000000000000000000000000000000000000000000000000000000000000000000000000000000000000000000000000000000000000000000000000000000000000000000000000000000000000000000000000000000000000000000000000000000000000000000000000000000000000000000000000000000000000000000000000000000000000000000000000000000000000000000000000000000000000000000000000000000000000000000000000000000000000000000000000000000000000000000000000000000000000000000000000000000000000000000000000000000000000000000000000000000000000000000000000000000000000000000000000000000000000000000000000000000000000000000000000000000000000000000000000000000000000000000000000000000000000000000000000000000000000000000000000000000000000000000000000000000000000000000000000000000000000000000000000000000000000000000000000000000000000000000000000000000000000000000000000000000000000000000000000000000000000000000000000000000000000000000000000000000000000000000000000000000000000000000000000000000000000000000000000000000000000000000000000000000000000000000000000000000000000000000000000000000000000000000000000000000000000000000000000000000000000000000000000000000000000000000000000000000000000000000000000000000000000000000000000000000000000000000000000000000000000000000000000000000000000000000000000000000000000000000000000000000000000000000000000000000000000000000000000000000000000000000000000000000000000000000000000000000000000000000000000000000000000000000000000000000000000000000000000000000000000000000000000000000000000000000000000000000000000000000000000000000000000000000000000000000000000000000000000000000000000000000000000000000000000000000000000000000000000000000000000000000000000000000000000000000000000000000000000000000000000000000000000000000000000000000000000000000000000000000000000000000000000000000000000000000000000000000000000000000000000000000000000000000000000000000000000000000000000000000000000000000000000000000000000000000000000000000000000000000000000000000000000000000000000000000000000000000000000000000000000000000000000000000000000000000000000000000000000000000000000000000000000000000000000000000000000000000000000000000000000000000000000000000000000000000000000000000000000000000000000000000000000000000000000000000000000000000000000000000000000000000000000000000000000000000000000000000000000000000000000000000000000000000000000000000000000000000000000000000000000000000000000000000000000000000000000000000000000000000000000000000000000000000000000000000000000000000000000000000000000000000000000000000000000000000000000000000000000
#051360:0013
#051340:000000000000000000000000003333230000000000000000
#051320:00000000000000000053000000000000
#051371:0000000000130000
#051391:000000000000000000000000000000003333230000000000
#0513b1:00000000000000000000005300000000
#051360:00000013
#051340:000000000000000000000000000000000000003333230000
#051320:00000000000000000000000000530000
#051371:0000000000000013
#051391:000000000000000000000000000000000000000000003333
#0513b1:00000000000000000000000000000053
#052391:23
#0523b1:0000132300000000
#052371:00000000005300000000000000000000
#052320:0000001323000000
#052360:00000000000000530000000000000000
#0523b1:0000000013230000
#052371:00000000000000000053000000000000
#052360:0000000000130023
#052320:00000053
#0533b0:0000000013230000
#053380:00000000000000000053000000000000
#053351:0000000000132300
#053321:00000000000000000000005300000000
#0543b1:0013
#054381:0000000000230000
#054350:0000000000130000
#054320:00000023
#0543b1:00000013
#054381:0000000000000023
#054350:0000000000000013
#055320:23
#055350:0000001300000000
#055320:0023
#055381:0000001300000000
#0553b1:0023
#056321:00000013
#056351:0000000000000023
#0563b0:00000013
#056380:0000000000000023
#057320:0000000013230000
#057350:00000000000000000053000000000000
#057381:0000000000132300
#0573b1:00000000000000000000005300000000
#061361:00130000000000000000000000000000
#061321:00000023000000000000000000000000
#061371:0013
#0613b1:0000000000230000
#061360:0000000000130000
#061320:00000023
#0613b1:00000013
#061371:0000000000000023
#061320:0000000000000013
#062360:23
#0623c1:12220000
#062361:0000000000000012
#063321:0022000000000000
#0633c1:00000000000000120000000000000000
#063381:0000000000220000
#063360:00000000000000120000000000000000
#063320:0000000000220000
#064360:12220000
#064320:0052000000000000
#064381:1200002200000000
#0643c1:00000052000000000000000000000000
#064321:0000000000000012
#065361:00520000000000000000000000000000
#065321:00220000
#064380:0000000000000012
#0653c0:00520000000000000000000000000000
#065380:00220000
#066320:12220000
#066380:0000000000000012
#0673c0:0022000000000000
#067320:00000000000000120000000000000000
#067360:0000000000220000
#067381:00000000000000120000000000000000
#0673c1:0000000000220000
#068381:12220000
#0683c1:0052000000000000
#068360:1200002200000000
#068320:00000052000000000000000000000000
#0683c0:0000000000000012
#069380:00520000000000000000000000000000
#0693c0:00220000
#068361:0000000000000012
#069321:00520000000000000000000000000000
#069361:00220000
#069321:00000000000000001323000000000000
#069380:00000000000000000013230000000000
#069351:00000000000000000000132300000000
#0693b0:00000000000000000000001323000000
#069321:00000000000000000000000013230000
#069380:00000000000000000000000000132300
#069351:00000000000000000000000000001323
#0693b0:000000000000000000000000000000000000000000000000000000000000000000000000000000000000000000000000000000000000000000000000000000000000000000000000000000000000000000000000000000000000000000000000000000000000000000000000000000000000000000000000000000000000000000000000000000000000000000000000000000000000000000000000000000000000000000000000000000000000000000000000000000000000000000000000000000000000000000000000000000000000000000000000000000000000000000000000000000000000000000000000000000000000000000000000000000000000000000000000000000000000000000000000000000000000000000000000000000000000000000000000000000000000000000000000000000000000000000000000000000000000000000000000000000000000000000000000000000000000000000000000000000000000000000000000000000000000000000000000000000000000000000000000000000000000000000000000000000000000000000000000000000000000000000000000000000000000000000000000000000000000000000000000000000000000000000000000000000000000000000000000000000000000000000000000000000000000000000000000000000000000000000000000000000000000000000000000000000000000000000000000000000000000000000000000000000000000000000000000000000000000000000000000000000000000000000000000000000000000000000000000000000000000000000000000000000000000000000000000000000000000000000000000000000000000000000000000000000000000000000000000000000000000000000000000000000000000000000000000000000000000000000000000000000000000000000000000000000000000000000000000000000000000000000000000000000000000000000000000000000000000000000000000000000000000000000000000000000000000000000000000000000000000000000000000000000000000000000000000000000000000000000000000000000000000000000000000000000000000000000000000000000000000000000000000000000000000000000000000000000000000000000000000000000000000000000000000000000000000000000000000000000000000000000000000000000000000000000000000000000000000000000000000000000000000000000000000000000000000000000000000000000000000000000000000000000000000000000000000000000000000000000000000000000000000000000000000000000000000000000000000000000000000000000000000000000000000000000000000000000000000000000000000000000000000000000000000000000000000000000000000000000000000000000000000000000000000000000000000000000000000000000000000000000000000000000000000000000000000000000000000000000000000000000000000000000000000000000000000000000000000000000000000000000000000000000000000000000000000000000000000000000000000000000000000000000000000000000000000000000000000000000000000000000000000000000000000000000000000000000000000000000000000000000000000000000000000000000000000000000000000000000000000000000000000000000000000000000000000000000000000000000000000000000000000000000000000000000000000000000000000000000000000000000000000000000000000000000000000000000000000000000000000000000000000000000000000000000000000000000000000000000000000000000000000000000000000000000000000000000000000000000000000000000000000000000000000000000000000000000000000000000000000000000000000000000000000000000000000000000000000000000000000000000000000000000000000000000000000000000000000000000000000000000000000000000000000000000000000000000000000000000000000000000000000000000000000000000000000000000000000000000000000000000000000000000000000000000000000000000000000000000000000000000000000000000000000000000000000000000000000000000000000000000000000000000000000000000000000000000000000000000000000000000000000000000000000000000000000000000000000000000000000000000000000000000000000000000000000000000000000000000000000000000000000000000000000000000000000000000000000000000000000000000000000000000000000000000000000000000000000130000000000000000000000000000000000000000000000000000000000000000000000000000000000000000000000000000000000000000000000000000000000000000000000000000000000000000000000000000000000000000000000000000000000000000000000000000000000000000000053
#0703b0:23
#070321:19290000
#070381:0053000000000000
#0703a1:00000000000000000014002400000000
#070361:0000000000540000
#070371:0000000000000013
#071321:53
#071371:0023000000000000
#0713b1:00000000000000130000230000000000
#071371:0000000000000000000000000000000000530000000000000000000000000000
#071360:00000000000000130000230000000000
#071320:0000000000000000000000000000000000530000000000000000000000000000
#072360:13230000
#0723b0:0053000000000000
#0723b0:0013
#072390:000000000000000000000000000000000000000000000000003300000000000000000000000000000000000000000000
#072370:000000000000000000000000002300000000000000000000
#0723a0:00000000000000000000001400000000
#072380:000000000000000000000000000000000034000000000000
#072360:000000000000000000000000000000000000000000000000000000000000000000000024000000000000000000000000
#072380:0000000000000016
#072360:000000000000000000000000000000000000000000000000000000000000000000000000000000000000003600000000
#072340:000000000000000000000026
#073370:13
#0733a0:00330000000000000000000000000000
#073380:0033000000000000
#0733b0:00000033000000000000000000000000
#073390:00230000
#073361:00130000
#073331:00000000003300000000000000000000
#073351:0000003300000000
#073321:00000000000000330000000000000000
#073341:0023
#0733b0:00000000000000001323000000000000
#073351:00000000000000000013230000000000
#073380:00000000000000000000132300000000
#073321:00000000000000000000001323000000
#0733b0:00000000000000000000000013230000
#073351:00000000000000000000000000132300
#073380:00000000000000000000000000001323
#073321:00000000000000000000000000000013
#074321:23
#074350:1953290000000000
#074320:00000000000000000014002400000000
#074360:0000000000540000
#074360:0000000000000013
#0753b0:53
#075360:0023000000000000
#075320:00000000000000130000230000000000
#075360:0000000000000000000000000000000000530000000000000000000000000000
#075371:00000000000000130000230000000000
#0753b1:0000000000000000000000000000000000530000000000000000000000000000
#076371:13230000
#076321:0053000000000000
#076321:0013
#076341:000000000000000000000000000000000000000000000000003300000000000000000000000000000000000000000000
#076361:000000000000000000000000002300000000000000000000
#076321:00000000000000000000001400000000
#076341:000000000000000000000000000000000034000000000000
#076361:000000000000000000000000000000000000000000000000000000000000000000000024000000000000000000000000
#076321:0000000000000016
#076341:000000000000000000000000000000000000000000000000000000000000000000000000000000000000003600000000
#076361:000000000000000000000026
#078321:13230000
#078361:0053000000000000
#080381:00132300000000000000000000000000
#080321:00000013230000000000000000000000
#080351:00000000001323000000000000000000
#0803b1:00000000000000132300000000000000
#080371:00000000000000000013002300000000
#080320:00000000000000000000132300000000
#081360:00132300000000000000000000000000
#0813b0:00000013230000000000000000000000
#081370:00000000001323000000000000000000
#081320:00000000000000132300000000000000
#081360:00000000000000000013002300000000
#0813b1:00000000000000000000132300000000
#082321:00000000000000001300002300000000
#082371:0000000000000000000000000000000000000053000000000000000000000000
#0823b0:00000000000000000000001300002300
#082360:0000000000000000000000000000000000000000000000000053000000000000
#082321:0000000000000013
#083371:00230000
#083361:00000000001400540000000000000000
#0833a1:0024
#083320:00000000000014540000000000000000
#083360:0024
