This file was generated by Ched 2.6.2.0.
#TITLE ""
#ARTIST ""
#DESIGNER ""
#DIFFICULTY 0
#PLAYLEVEL
#SONGID ""
#WAVE ""
#WAVEOFFSET 0
#JACKET ""
#REQUEST "ticks_per_beat 480"
#00002: 4
#BPM01: 145
#00008: 01
#TIL00: ""
#HISPEED 00
#MEASUREHS 00
#00118:14141400
#00214:14141400
#0031a:14141400
#00412:14141400
#00518:14
#00514:00140000
#00614:14
#00618:00140000
#0071a:14
#00714:00140000
#00812:14
#00818:00140000
#01312:14
#01318:00140000
#01314:00001414
#0131a:0000000000140000
#0141a:14
#01414:00140000
#01418:00001414
#01412:0000000000140000
#01512:14
#01518:00140000
#0161a:14
#01614:00140000
#0271a:14
#02713:00140000
#02719:0014
#02712:00000014
#02818:14
#0281a:0014
#02813:00000014
#02819:00000014
#02814:0014
#0311a:1414
#03114:00140000
#03312:00160000
#03314:0000000000140000
#03318:26001414
#03310:41
#0351a:14140000
#03512:14140000
#03614:0014
#03618:00000014
#0411a:14
#04112:00140000
#0211a:1400340034000034
#02117:00000014
#01712:1400340034000034
#01715:00000014
#01710:41
#01918:14001414
#01912:0000140000140000
#0201a:0000140000140000
#02014:14001414
#03718:0000160000140000
#03714:00001414
#03712:26
#07218:1416
#07212:14
#07214:00140000
#0721a:00140000
#07216:00000000000000000000003600000000
#0831a:0014
#08312:0014
#08318:00140000
#08314:0000001400000000
#08213:00140000
#08219:0014000000000000
#08218:0000001400000000
#08212:24
#04314:1414
#0431a:00140014
#04513:00001414
#04519:14140000
#04510:41
#04619:14140000
#04613:00001414
#0471a:1414
#04714:00140014
#04818:1414
#04812:00140014
#0511a:1414
#05114:00140014
#05218:1414
#05212:00140014
#0621a:1313
#06215:00130000
#0621f:11
#06918:0014
#06914:00000014
#07314:0014
#07318:00000014
#0781a:14
#07812:00140000
#07816:00000000000000001400003400000000
#08013:00140000
#08019:0014000000000000
#08018:0000001400000000
#08014:24
#07916:0014
#0791a:00000014
#07912:00140000
#07712:00000014
#07716:0014
#0771a:00140000
#0571a:14
#05714:00140000
#05718:0014
#05712:00000014
#0581a:14
#05814:00140000
#05818:0014
#05812:00000014
#0401a:00140000
#04016:0014
#04012:00000014
#04212:00140000
#04216:0014
#0421a:00000014
#04918:0000001400000000
#0491a:14
#05014:0000001400000000
#05012:14
#05614:14
#05518:14
#06313:1313
#06318:00130000
#06418:13
#06415:00130000
#06613:1313
#06618:00130000
#0671a:1313
#06715:00130000
#06815:13
#06818:00130000
#02514:00000014
#02510:41
#06018:14
#02314:14001414
#0231a:0000140000140000
#02412:0000140000140000
#02418:14001414
#0091a:00140000
#00914:00001414
#00918:0000000000140000
#00910:41
#01018:14001414
#01012:00140000
#01014:0000000000140000
#01112:14
#01118:00140000
#0121a:14
#01214:00140000
#06114:14
#02918:14
#02912:14
#08119:00140000
#08113:0014000000000000
#08114:0000001400000000
#08118:24
#03412:14140000
#03418:0000000000140000
#03414:00001414
#0341a:14140000
#03912:14140000
#0391a:14140000
#0381a:14140000
#03814:0000000000140000
#03818:00001414
#03812:14140000
#07012:00160000
#07014:0000000000140000
#07018:2614
#0701a:00000014
#0701f:21
#07114:1414
#07118:0000140000140000
#07112:00140014
#0711a:14
#07110:41
#07612:00141600
#07614:14000000000000000000003600000000
#0761a:14
#07618:00140000
#07418:0000160000140000
#07414:0014
#07412:26000014
#07518:1414
#07514:0000140000140000
#0751a:00140014
#07512:14
#0221a:0034003434000000
#01812:0034003434000000
#02614:34000034000000000000000000000000
#0215a:24
#02157:00000064
#01752:24
#01755:00000054
#07258:0066
#08352:0014
#0835a:0014
#0495a:64
#04958:0000002400000000
#05054:0000002400000000
#05052:54
#05558:54
#05654:64
#07856:0024
#00954:14
#02554:00000024
#04454:00000014
#06058:54
#06154:64
#03254:0014
#03752:16
#03358:16
#07058:16
#07652:0056
#07452:16
#005380:00001424
#006340:00001424
#007380:00001424
#008340:00000000000000001400343400343400
#009340:24
#011340:00001424
#012380:00001424
#015320:0014
#015340:00000024
#0163a0:0014
#016380:00000024
#017320:1400340034000034
#017350:00000034
#018320:0034003434002400
#0213a0:1400340034000034
#021370:00000034
#0223a0:0034003434002400
#025340:14000034
#026340:34000034000000000000000000000000
#026320:0000002400000000
#029320:00001424
#029381:00001424
#030341:14240000
#0303a0:14240000
#030380:00001424
#030321:00001424
#031341:0000000000001434
#032341:0034003424000000
#035381:00000000000000001600003600002600
#039321:00000000000000001600003600002600
#041351:00000000000000001600003600002600
#044341:1400343434002400
#0493a1:14000024
#049381:0000005400000000
#050321:14000024
#050341:0000005400000000
#053381:14
#0533a1:0024
#054341:14
#054321:0024
#055381:14
#0553a1:0024
#056341:14
#056321:0024
#0593a1:14
#059381:00240000
#059321:0014
#059341:00000024
#060381:14
#0603a1:00000024
#061341:14
#061321:0024
#064381:00000000000000001300003300002300
#068351:00000000000000001300003300002300
#072381:0016
#072361:00000000000000000000003600002600
#076321:0016
#076341:00000000000000000000003600002600
#078361:00000000000000001400003400000000
#078341:0000000000000028
#080321:0014
#080341:00000024
#0813a1:0014
#081381:00000024
#082341:00000000000000001400003400002400
