This file was generated by Ched 2.6.2.0.
#TITLE ""
#ARTIST ""
#DESIGNER ""
#DIFFICULTY 0
#PLAYLEVEL
#SONGID ""
#WAVE ""
#WAVEOFFSET 0
#JACKET ""
#REQUEST "ticks_per_beat 480"
#00002: 4
#BPM01: 190
#00008: 01
#TIL00: ""
#HISPEED 00
#MEASUREHS 00
#00119:14
#00219:0000001400000000
#00413:14
#00513:0000001400000000
#01714:00000014
#0191a:14
#02612:00000014
#01112:00000014
#01018:0000000000140000
#0061a:00000014
#00814:14
#0081a:00000014
#00912:00000014
#01614:0014
#01518:00140000
#0201a:00140000
#02112:0014
#02212:00000014
#02812:00140000
#02918:0014
#03118:14
#03214:00140000
#03314:00000014
#0351a:14
#0361a:0014
#03712:00000014
#03710:00000041
#03918:00140000
#04012:0014
#04218:14
#04314:00140000
#0441a:00000014
#04614:14
#0471a:0014
#04710:0041
#04912:14
#0491f:11
#06412:00000016
#06418:00160000
#06618:16
#06612:00000016
#06312:0016
#06218:00160000
#06210:00410000
#06718:00160000
#06112:00000016
#06118:26
#0611f:21
#08718:00140000
#08814:0014
#08918:00000014
#09112:14
#09118:00000014
#09212:0014
#09414:14
#0941a:00000014
#09514:0014
#07418:00000016
#07412:00160000
#07612:16
#07618:00000016
#07610:41
#07318:0016
#07212:00160000
#07712:00160000
#07118:00000016
#07112:26
#06812:16
#06818:0016
#06912:00160000
#06918:00000016
#07818:16
#07812:0016
#07918:00160000
#07912:00000016
#09318:00140000
#08018:0026
#08312:26
#01418:24
#01410:41
#02410:41
#024380:14
#025380:0024
#0503a0:0014
#0523a0:24
#053320:0014
#055320:24
#0563a0:0014
#0583a0:24
#059340:00140000
#060340:00240000
#080380:0016
#081380:36
#082380:0026
#083320:1636
#086320:26
#0963a0:0000140000003424
