This file was generated by Ched 2.6.2.0.
#TITLE "Leia-Remind"
#ARTIST ""
#DESIGNER ""
#DIFFICULTY 0
#PLAYLEVEL
#SONGID ""
#WAVE ""
#WAVEOFFSET 0
#JACKET ""
#REQUEST "ticks_per_beat 480"
#00002: 4
#BPM01: 190
#00008: 01
#TIL00: ""
#HISPEED 00
#MEASUREHS 00
#0011b:1300000000000013
#00115:13
#00112:00130000
#00118:00130000
#00116:0000000000000013
#00119:0000000000330000
#00114:0000000000330000
#00218:0014001300000000
#00214:00140000
#00212:0000001300000000
#0021b:0000000000130000
#00215:0000000000130000
#0031b:0013
#00315:00000013
#00318:0000000000000013
#00317:00130000
#00312:00130000
#00314:33
#00319:33
#00618:0000000013130000
#00616:00130000
#0061b:00130000
#00615:00000000000000000013001300000000
#00619:33
#00614:33
#00714:13000013
#00719:0000001300000000
#00718:0000000000000013
#00812:13001313
#00815:00001300001300000000000000001300
#0081b:0000130000130000
#00818:00130000000013000000000000130000
#0091b:13000013
#00918:0013000000000000
#00915:00130000000000000000000000000000
#01012:1300000000130014
#01018:1314
#0101a:0000140000000014
#01014:0000001400000000
#01118:1313
#01115:0013000000130000
#0111b:00130000
#01112:0000001300002300
#0111a:00000024
#01217:0014000000000014
#0121a:0014
#0131a:0014000000000000
#0131b:0013
#01312:0000000000130000
#01315:00000013
#01318:0000000000000013
#0141b:13
#01418:00130000
#01410:41
#0151b:0000000000130000
#01512:00130000
#0161b:0013000000000000
#01612:1313
#01615:0000001300001300
#01618:00130000
#0181b:0013
#01816:0000000000130000
#01819:00000013
#01814:0000000000000013
#01812:0013000000000000
#0231b:0013
#02315:0000000000130000
#0231a:00000013
#02312:1313000000000000
#02314:0000000000000013
#02418:14000014
#02414:0000001400000000
#0241b:00130000
#02412:0000000000130000
#02410:41
#02514:0014000000000014
#02518:0014
#0251b:13000013
#02512:0000001300000000
#02612:0013000000000000
#02618:00130000
#02614:0000001300000000
#0261a:0013
#02616:0000000000130000
#02716:0013
#02714:00000013
#0271b:0000001313000000
#02719:00000013
#02812:1300000000000013
#0281b:0000131300000000
#02817:13
#02917:13
#0291b:00130000
#02916:00130000
#02912:1313
#03115:1313000000000000
#03117:00000013
#0311b:13
#03215:0013000000130000
#03218:13
#0321b:0000130000000013
#0331b:1300000000001313
#03315:00130000
#03318:0013
#03312:00000013
#03415:00000013
#03418:0013000000000013
#03412:0000001313000000
#0351b:1300000000131300
#03519:00130000
#03512:13
#03514:0000001300000000
#03516:00000013
#03612:13
#03618:00130000
#03615:0013
#03614:0000000000000013
#0361b:0013
#03715:0013
#0371b:0000001300001300
#03718:0000000000130000
#03712:00130013
#03719:13
#03710:00000041
#0421b:1300000000000013
#04212:13131313
#04315:1313000000000000
#0431b:0013
#04319:00000013
#04318:00130013000000000000000000000000
#04312:00130000
#04314:0000000000130000
#04414:00130013
#04414:00130000
#0441b:13001313
#0441b:0013
#04419:00130000
#04412:0013
#04618:00130000
#0461b:1313
#04612:13
#04615:0000001300000000
#04712:13130000
#04719:00130000
#0471b:0013
#04715:00000013
#04710:0041
#04812:00130000
#04815:0013
#04818:00000013
#04817:13
#0491a:00000012
#0491b:13
#0491f:11
#05016:0012
#05018:0000120000000012
#05114:00120000
#05117:0012
#0511a:00000012
#05214:12
#05312:00120000
#0531b:0012
#05317:0000000000000012
#05413:00120000
#05417:00000012
#05514:0012
#05515:12
#05613:12
#05612:00121200
#0561c:0012
#05719:00120000
#05717:0012
#05715:00000012
#05812:13
#0581b:00000013
#05818:0000001200000000
#05915:12
#05919:00120000
#05912:0000000013000013
#0591b:0000000013000013
#09018:000016000000160000130000000000000000000000000000
#09019:001400140014000000000000000000140000000000000000
#0901a:121200000000
#09013:00001414
#09015:23
#09012:00230000
#09112:14001414
#0911a:14000014
#0921a:14141400
#09212:0014001400001400
#09312:14000013
#0931a:00140000
#09315:0000001300130000
#09318:00000000000000001300001300000000
#0931b:0000000000000013
#0961a:0000000014001414
#09612:0000140000001414
#09614:14
#08819:14140000
#08813:000000140000000000000000001400140014001400140014
#08812:000000161616
#08814:000000000000001200120012
#0881a:0024
#08818:00000023
#0941a:14
#09412:14000014
#09413:00140000
#09414:0014
#0951a:1414
#09518:00140000
#09512:00000014
#00412:1300000000000013
#0041b:13130000
#00416:00130000
#00417:0000000000000013
#00414:0000000000330000
#00419:0000000000330000
#00514:0014000000000000
#00518:0000140000130000
#0051b:0000001300000000
#00515:0000001300000000
#00512:0000000000130000
#02112:13
#02119:00130000
#02114:00130000
#02116:0013
#02117:13
#02115:00000013
#0221b:00000013
#03014:0013
#03017:00000013
#0301b:0013130000000000
#03019:0013
#03012:00000013
#06518:00000000000013001300001300000000
#06515:00000000000000130000130013000000
#0651b:0013000000000013
#07015:0000000013131300
#07018:00000000000000000013001300001300
#0701b:0013000000000000
#07112:1300000000131300
#07115:00130000
#07118:0000000000000013
#0711b:13
#07119:0000001300000000
#0721a:0013000000000000
#0721b:00130000
#07212:0000000000130000
#07216:00130000
#07214:13
#0731b:1313
#07315:0013000000000000
#07318:00130013
#07312:0000001313000000
#07314:0000000000000013
#07518:0000000013131300
#07512:0000000000000013
#0751b:0013130000000000
#07515:00000000000000000013001300000000
#08018:0000000013130000
#08015:00000000000000000013001300000000
#0801b:0000130000001313
#08012:00000000000000000000000000130013
#07615:1300131300000000
#0761b:1300000000130000
#07618:00000013
#07612:0000000000000013
#07610:41
#0781b:13
#07815:0013000000000000
#07819:00130000
#07812:0000001313000000
#07818:0000000013001313
#07712:1300000000131300
#07718:0013000000000013
#0771b:00130000
#07715:00130000
#0811a:141414141414141414141414
#08119:001400140014001400140014001400140014001400140014
#08115:00130000
#08115:00130000
#08115:00230000
#08112:0023
#08114:00000024
#0821a:141414141414141414000000
#08219:001400140014001400140014001400140014000000000000
#08212:2324
#08215:00230023
#08618:161616161616
#08619:001400140014001400140014001400140014001400140014
#0861a:001200120012001200120012
#08612:2423
#08615:00230000
#08614:00000024
#08312:000000000000141414141414
#08313:000000000000000000000000001400140014001400140014
#0831a:2424
#08314:0024000000000000
#08318:00240023
#08412:141414141414141414141414
#08413:001400140014001400140014001400140014001400140014
#0841b:2323
#08418:00240023
#08512:140014001400000000000000000000000000000000130000
#08513:001400140014000000000000000000000000000000000000
#08518:00231300
#08515:0000000000130000
#0851b:00000013
#0851a:24
#08712:230000160016001600160000
#08713:000000000000001400140014001400140014000000000000
#08714:000012121200
#0871a:00240000
#08718:0023
#0871b:00000023
#08912:160016001600000000240000
#08913:001400140014001400140014000000000000000000000000
#08914:001200120012000000000000
#08918:000000240000000000160016
#08919:000000000000000000000000000000000000001400140014
#0891a:000000000012
#0891b:2323
#0171b:00000013
#0191b:13
#01918:00130000
#0201b:0000000000130000
#02012:00130000
#0381b:13131313
#03814:00000013
#03815:0013000000000000
#0391b:13130000
#03916:13
#03912:00131313
#03918:0000000000130000
#04012:13131300
#04018:00130000
#0401b:00001313
#04015:0013000000000013
#0411b:13131313
#04114:0013
#04116:00000013
#04519:0013000000001300
#04519:00000013
#04512:1313
#04514:00130013
#0451b:0000000000130000
#06018:00130000000000000000000013000000
#0601b:33003333000000000000130000000000
#06015:00130000000000000000000000001300
#06012:33003333000000001300000000000000
#06212:1300000000130000
#0621b:0013130000000000
#06210:00410000
#06118:00001313
#06112:2300000000000013
#0611b:13
#06115:0000001300000000
#0611f:21
#06312:0013000013000000
#06315:00130000
#06318:0000001300000013
#0631b:1313
#06412:0000000000131300
#06415:13130000
#0641b:0000001313000000
#06612:1300000000000013
#06618:0013
#06615:0000001300000000
#0661b:13000013
#06712:0000000000130000
#0671b:0013130000000000
#06715:1300000000000013
#06718:00000000000000000000000000000013
#06815:13000013000000000000000000000000
#06818:0013130000000013
#06812:0000001313000000
#0681b:0013
#06912:0000130000131300
#06915:13
#0691b:0000001300000000
#06918:0013
#07912:0013000000001300
#07915:0000130000130000
#0791b:0000001313000000
#07918:00000013
#0741b:0013130000000000
#07413:0000000000130000
#07412:00000013
#07417:00000013
#07415:0000001300000000
#07419:0013
#00258:0014000000000000
#00254:00140000
#00852:0013
#0085b:0000000000130000
#01158:0013
#0115a:00000014
#0115b:00130000
#09458:00000014
#0945a:54
#09452:14000054
#09554:0014
#0955a:0054
#01552:00630000
#04752:00230000
#0475b:0063
#04755:00000023
#04857:53
#00554:0014000000000000
#00558:00140000
#0225b:00000063
#0725b:00630000
#07257:0000000000130000
#07256:00130000
#07254:23
#0815a:545454545454545454545454
#08159:005400540054005400540054005400540054005400540054
#0825a:545454545454545454000000
#08259:005400540054005400540054005400540054000000000000
#08658:262626262626
#0865a:002200220022002200220022
#08659:005400540054005400540054005400540054005400540054
#08352:000000000000646464646464
#08353:000000000000000000000000006400640064006400640064
#08452:646464646464646464646464
#08453:006400640064006400640064006400640064006400640064
#08552:646464000000000000000000
#08553:006400640064000000000000000000000000000000000000
#08752:000000260026002600260000
#08753:000000000000006400640064006400640064000000000000
#08754:000022222200
#08852:000000262626
#08853:000000000000000000000000006400640064006400640064
#08854:000000000000002200220022
#08952:262626000000
#08953:006400640064006400640064000000000000000000000000
#08954:002200220022000000000000
#08958:000000000000000000260026
#08959:000000000000000000000000000000000000005400540054
#0895a:000000000022
#09058:002600260000000000000000
#09059:005400540054000000000000000000000000000000000000
#0905a:222200000000
#0775b:00530000
#07752:53
#07757:0000000000130000
#07755:00130000
#0105a:00140000
#01054:0000001400000000
#01058:0014
#0175b:00000053
#02052:00630000
#0315b:53
#03255:0000000000530000
#0325b:00230000
#03352:00000023
#03458:0063000000000000
#03552:53
#03554:0000002300000000
#0365b:0053
#03759:23
#03752:00000053
#0425b:53
#03855:0023000000000000
#0395b:00630000
#03958:0000000000230000
#04052:0053
#04055:0000000000000023
#04352:00230000
#04354:0000000000530000
#0445b:00000023
#04559:0063000000000000
#04652:53
#04655:0000002300000000
#0595b:0000000000000053
#05952:0000000000000063
#06058:00230000000000000000000000000000
#06055:00230000000000000000000000000000
#06052:00330000
#0605b:00430000
#0625b:00530000
#06252:53
#0615b:53
#06155:0000005300000000
#06158:00000053
#06152:13
#06452:00000063
#06455:00630000
#0645b:0063
#06352:0063
#06358:0000000000000063
#0635b:0013
#0675b:00530000
#06755:53
#06655:0000005300000000
#0665b:23000023
#06652:13
#06952:00230063
#06958:0063
#06858:0000000000000063
#06852:0023
#0685b:0013
#0765b:53
#07658:00000053
#07655:1300002300000000
#07852:0063
#07858:0000000000000023
#09652:00540000
#09658:00140000
#0915a:54
#09152:00000054
#0925a:0054
#0145b:13
#01652:0013
#0195b:13
#02156:0013
#07152:13000053
#0715b:53
#07159:0000002300000000
#07955:00630000
#0795b:0063
#07952:00000063
#07958:00000013
#0735b:0013
#07352:0063
#07354:0000000000000023
#07452:00000053
#07457:00000013
#0745b:00630000
#07459:0023
#07556:0013000000000000
#0013b0:0013
#001390:0000000000330000
#001370:00000023
#001361:0013
#001341:0000000000330000
#001321:00000023
#002321:0000000000000013
#003341:33
#003361:0023000000000000
#002370:0000000000000013
#003390:33
#0033b0:0023000000000000
#004320:0013
#004340:0000000000330000
#004360:00000023
#004371:0013
#004391:0000000000330000
#0043b1:00000023
#0053b1:0000000000000013
#006391:33
#006371:0023000000000000
#005360:0000000000000013
#006340:33
#006320:0023000000000000
#0063b0:00000013
#007390:23
#007340:0013000000000000
#007320:0000002300000000
#007390:0013
#0073b0:00000023
#009320:00130000
#009350:00000000000000230000000000000000
#009381:00000000000000130000000000000000
#0093b1:0000000000230000
#009350:0000000000130000
#009320:00000023
#011320:00000013
#013320:0023000000000000
#014320:13
#014350:00230000
#014380:0000001300000000
#0143b0:00000023
#014351:00000013
#015321:23
#0153b0:13
#015380:00230000
#015321:00130000
#015361:0000000000230000
#0163b1:0013
#016381:00000023
#016351:0000000000000013
#017321:00230000
#017380:00130000
#0173b0:0023
#017321:0013
#017351:00000023
#0173b0:00000013
#018370:0023000000000000
#019320:13
#019350:00230000
#019380:0000001300000000
#0193b0:00000023
#019351:00000013
#020321:23
#0203b0:13
#020380:00230000
#020321:00130000
#020361:0000000000230000
#0213b1:0013
#021381:00000023
#021351:0000000000000013
#022321:00230000
#022380:00130000
#0223b0:0023
#022351:0013
#022321:00000023
#0223b0:00000013
#023370:0023000000000000
#024320:14
#024340:00240000
#0243a0:0000001400000000
#024380:0000000000240000
#024320:00000014
#025340:24
#0253a0:0014000000000000
#025380:0000002400000000
#025320:0014
#025340:00000024
#0253a0:0000000000000014
#026380:0024000000000000
#0263b0:00000013
#027380:0023000000000000
#027351:0013000000000000
#027321:0000002300000000
#028321:00130000
#028351:0000000000230000
#028380:0000000000130000
#0283b0:0000000000000023
#0293b0:0013
#029380:0000000000000023
#029351:0000000000000013
#030321:00230000
#0313b1:13
#031371:0023
#031320:00001323
#0323b0:00130000
#032380:0000000000230000
#032351:0000000000130000
#033321:23
#033321:00000013
#034351:0023000000000000
#034380:0013000000000000
#0343b0:0023
#035320:13
#035340:00230000
#035340:0000001300000000
#035360:0000000000230000
#0363b0:0013
#036390:0000000000000023
#037390:13
#037370:00230000
#037320:00000013
#038350:23
#038350:0013000000000000
#038320:0023
#0393b0:00130000
#039380:0023
#039380:0000000000130000
#0403b0:23
#040320:0013
#040350:00000023
#040350:0000000000000013
#041320:00230000
#0423b0:13
#042370:00230000
#042370:00001323
#043320:00130000
#043340:0023
#043340:0000000000130000
#044360:23
#0443b0:00000013
#045390:23
#045390:0013000000000000
#045370:0023
#046320:13
#046350:00230000
#046350:0000001300000000
#046320:00000023
#0463b1:00000013
#047381:23
#047321:00130000
#047361:0023
#0473b0:0013
#047380:00000023
#047351:00000013
#048321:23
#048370:13
#0483b0:00230000
#049330:12
#050330:00220000
#0523a0:0000001200002200
#0553a0:12
#0563a0:00220000
#056350:0000000000000012
#057350:00220000
#058350:0000001200002200
#0593b0:0000000000000013
#0603b0:33003333230000000000000000000000
#060380:00530000000000000000000000000000
#059321:0000000000000013
#060321:33003333230000000000000000000000
#060351:00530000000000000000000000000000
#0613b1:13
#061381:0000002300000000
#061350:0000001300000000
#061320:00000023
#061381:00000013
#0623b1:23
#062320:13
#062350:00230000
#0623b1:00130000
#062371:0000000000230000
#063321:0013
#063351:0000000000000023
#063380:0000000000000013
#0643b0:00230000
#064351:00130000
#064321:0023
#0643b0:0013
#064380:00000023
#064321:00000013
#065361:0023000000000000
#0663b1:13
#066381:0000002300000000
#066350:0000001300000000
#066320:00000023
#0663b1:00000013
#067381:23
#067350:13
#067320:00230000
#0673b1:00130000
#067371:0000000000230000
#068321:0013
#068351:0000000000000023
#068380:0000000000000013
#0693b0:00230000
#069321:00130000
#069351:0023
#069380:0013
#0693b0:00000023
#069321:00000013
#070361:0023000000000000
#0713b1:13
#071391:00230000
#071391:0000001300000000
#071371:0000000000230000
#071321:00000013
#071341:0000000000000023
#072341:13
#072361:0023000000000000
#0723b1:00130000
#072371:0000000000230000
#073321:0013
#073341:00000023
#073341:0000000000000013
#074361:0023000000000000
#0743b1:00130000
#074391:0000002300000000
#074391:0013
#074371:0000000000230000
#074321:00000013
#075361:0023000000000000
#0763b1:13
#076381:00230000
#076351:0000001300000000
#076321:0000000000230000
#076381:00000013
#0763b1:0000000000000023
#077321:13
#077351:0023000000000000
#0773b1:00130000
#077371:0000000000230000
#078321:0013
#078351:00000023
#078381:0000000000000013
#0793b1:0023000000000000
#079351:00130000
#079321:0000002300000000
#0793b1:0013
#079381:0000000000230000
#079321:00000013
#080361:00230000
#0813a1:145454545454545454545454
#081391:005400540054005400540054005400540054005400540054
#0823a1:545454545454545454240000
#082391:005400540054005400540054005400540054000000000000
#083321:000000000000145454545454
#083331:000000000000000000000000005400540054005400540054
#084321:545454545454545454545454
#084331:005400540054005400540054005400540054005400540054
#085321:545454240000000000000000
#085331:005400540054000000000000000000000000000000000000
#086381:165656565656
#086391:005400540054005400540054005400540054005400540054
#0863a1:005200520052005200520052
#087381:26
#087321:000000160056005600260000
#087331:000000000000005400540054005400540054000000000000
#087341:000052525200
#088321:000000165656
#088331:000000000000000000000000005400540054005400540054
#088341:000000000000005200520052
#089321:565656260000
#089331:005400540054005400540054000000000000000000000000
#089341:005200520052000000000000
#089381:000000000000000000160056
#089391:000000000000000000000000000000000000005400540054
#0893a1:000000000052
#0903a1:525200000000
#090391:005400540054000000000000000000000000000000000000
#090381:005600260000000000000000
#0913a1:14
#091361:0024
#091321:00000014
#092361:24
#0923a1:0014
#093361:24
#0943a1:14
#094381:00000024
#094320:00000014
#095340:0024
#0953a1:0014
#096381:00240000
#096320:00140000
#096340:0024
