This file was generated by Ched 2.6.2.0.
#TITLE "Leia-Remind"
#ARTIST ""
#DESIGNER ""
#DIFFICULTY 0
#PLAYLEVEL
#SONGID ""
#WAVE ""
#WAVEOFFSET 0
#JACKET ""
#REQUEST "ticks_per_beat 480"
#00002: 4
#BPM01: 190
#00008: 01
#TIL00: ""
#HISPEED 00
#MEASUREHS 00
#0011b:1313
#00112:0000130000000013
#00118:00000013
#00115:0000000000130000
#00218:0014140000000000
#00212:0000001300000013
#0021b:0000000000130000
#00315:0013000000001300
#00318:1300000000000013
#0031b:00131300
#00312:0013
#00618:0013
#00615:0000000000130000
#00612:00130000
#00619:33
#0081b:13
#00815:00130000
#00818:00001413
#00814:0000000000140000
#01012:1300000000130014
#0101a:0000000000000014
#01018:00141400
#01014:0000001400000000
#0111b:00130023
#01112:0000001300000000
#01118:0013
#01115:0000000000130000
#01318:0000000000130013
#01312:00001313
#01412:13
#01415:0000001300000000
#0141b:0000001300000000
#01410:41
#0231b:00001313
#02315:0000000000130013
#02618:0013
#02612:0013
#0261b:00000013
#02615:00000013
#02712:00000013
#02718:00000013
#02715:0013000000000000
#0311b:13000013
#03115:13000013
#03315:00130000
#03318:0013
#0331b:00000013
#03618:13
#03615:00130000
#0361b:0013
#04719:00130000
#0471b:0013
#04710:0041
#05112:00130000
#05115:0013
#05118:00000013
#05215:13
#05218:0000001300000000
#05312:00130000
#0531b:0013
#05318:0000000000000013
#05415:00130000
#05418:00000013
#0561b:0013
#05615:0000000000000013
#0571b:00130000
#05718:0013
#05715:00000013
#05812:13
#05818:0000001300000000
#09312:00140013
#09318:0000001300130000
#09315:0013
#0931b:0000000000000013
#09618:0000000000000014
#09614:14000014
#0961a:00140000
#09619:0014
#0151b:00130000
#08819:14140000
#08813:0014000000000000
#08812:0024
#08818:00000023
#0911a:14
#09112:00000014
#0921a:00141400
#00412:13
#0041b:0000130000000013
#00414:0000000000330000
#00514:0014140000000000
#0051b:0000001300000000
#00512:0000000000130000
#03015:0013
#03018:00000013
#0301b:0013
#03012:00000013
#04418:0013
#0441b:00130000
#04412:00000013
#0701b:0013
#07012:0000000000130000
#07019:00000013
#07014:0000000000000013
#07117:13
#08119:141414141414141414141414
#08118:001400140014001400140014001400140014001400140014
#08219:141414141414141414000000
#08218:001400140014001400140014001400140014000000000000
#00912:1300000000140000
#0091a:00140000
#00916:00000000000000140000000000000000
#0091b:00000013
#02912:0013
#0291b:0013
#02915:0000000000000013
#03515:0000001300000000
#03512:13
#03518:13
#03815:00000013
#0381b:0013000000000000
#03918:1300000000130000
#03915:00130000
#03712:00000013
#03710:00000041
#0431b:00130000
#04315:0000000000130000
#05018:0000000000000013
#05015:0013
#05912:0000130013000013
#0591b:0000130013000013
#08518:00001313
#08515:0000000000130013
#08513:141414000000000000000000
#08514:001400140014000000000000000000000000000000000000
#09013:00001414
#09019:0000000000140000
#09015:23
#09018:00230000
#00712:0000000000000013
#01712:00000013
#01618:0000000000000013
#01612:0000000000000013
#01615:0013001300000000
#0161b:13131300
#0181b:0000000000130000
#01814:00000013
#01819:0000000000000013
#01816:0013
#01912:13
#01915:0000001300000000
#0191b:0000001300000000
#0201b:00130000
#02115:00130000
#02118:0013
#02112:1300000000000013
#0211b:0000000000000013
#02212:00000013
#0241a:14000014
#02417:0000001400000000
#02410:41
#02517:0014000000000014
#0251a:0014
#02815:13
#0281b:13
#02812:00130000
#02818:0000130000130000
#03212:00130000
#03215:0000000000130000
#03418:0013000000000000
#04118:0013
#04115:00000013
#0401b:0013
#04012:0000000000000013
#04218:13
#04215:00000013
#04518:0013000000000000
#04615:13
#0461b:13
#04618:0000001300000000
#04612:0000001300000000
#04816:13
#04814:00130000
#04812:0013
#0601b:0000000000130000
#06015:00000013
#06018:0000000000000013
#06012:0013
#0621b:00130000
#06210:00410000
#06115:0000001300000000
#0611b:0000001300000000
#06112:23
#0611f:21
#06312:0013000000000013
#06318:0000130000000013
#06315:0000001300000000
#0631b:1313
#06412:00000013
#06515:0000000000130000
#06519:00000013
#06513:0000000000000013
#0651b:0013
#06718:00130000
#06618:0000001300000000
#06612:0000001300000000
#06617:13
#06815:00130000
#06818:0013
#06812:1300000000000013
#0681b:1300000000000013
#06915:00000013
#07218:13130000
#07212:13
#07312:13
#0731b:0013000000000000
#07314:00130000
#07319:0000001300000000
#07316:0013
#0751b:0013
#07512:0000000000130000
#07519:00000013
#07514:0000000000000013
#07617:13
#07610:41
#0771b:00130000
#07712:13
#07718:13
#07715:00130000
#0781b:1313
#07815:13
#07812:00130000
#07818:00130000
#07912:00130013
#07918:00130000
#0791b:0013
#07915:0013
#08313:000000000000141414141414
#08314:000000240000000000000000001400140014001400140014
#08318:24240000
#08413:141414141414141414141414
#08414:001400140014001400140014001400140014001400140014
#09412:14
#09413:00140000
#09414:0014
#0941a:00000014
#09519:14
#09518:00140000
#09512:0014
#09513:00000014
#07415:00001313
#0741b:0013
#0491f:11
#0861a:24
#08615:00230000
#08618:0023
#08612:00000024
#08718:2323
#08715:00230023
#08915:2323
#0891a:00240000
#08918:00000023
#0155b:00530000
#0475b:0063
#08159:545454545454545454545454
#08158:005400540054005400540054005400540054005400540054
#08259:545454545454545454000000
#08258:005400540054005400540054005400540054000000000000
#03155:53
#0315b:53
#0365b:0053
#0385b:0023000000000000
#03752:00000053
#03955:00630000
#03958:0000000000230000
#0435b:00230000
#04355:0000000000530000
#0915a:54
#09152:00000054
#0925a:0054
#01452:13
#07157:13
#0115b:00000053
#01752:00000063
#01952:13
#0205b:00530000
#02158:0013
#02252:00000063
#0245a:54000054
#02457:0000005400000000
#02557:0054000000000054
#0255a:0054
#02755:0053000000000000
#02858:0000000000630000
#02955:0000000000000053
#03252:00530000
#03255:0000000000530000
#0335b:00000063
#03458:0063000000000000
#0405b:0063
#04052:0000000000000023
#04258:53
#04452:00000023
#04558:0063000000000000
#04658:0000005300000000
#04652:0000005300000000
#04852:0053
#06058:00130000
#06055:00130000
#0595b:0000000000000053
#05952:0000000000000063
#0625b:00530000
#06152:13
#06452:00000063
#0635b:0013
#06758:00630000
#06657:13
#06955:00000063
#07356:0013
#07657:13
#0775b:00630000
#07758:0000000000130000
#07755:00630000
#07752:0000000000130000
#07952:00000053
#0785b:0053
#08353:000000000000646464646464
#08354:000000000000000000000000006400640064006400640064
#08453:646464646464646464646464
#08454:006400640064006400640064006400640064006400640064
#08553:646464000000000000000000
#08554:006400640064000000000000000000000000000000000000
#0165b:0013
#03555:0000005300000000
#06858:0013
#0725b:0000000000130000
#07258:00530000
#07455:00000063
#07552:0013000000000000
#09452:14
#0945a:00000014
#09552:0014
#0965a:00140000
#004320:0013
#004340:0000000000330000
#004360:00000023
#0053b0:0000000000000013
#006390:33
#006370:0023000000000000
#0063b0:00000013
#0073b0:23
#007350:0013002300000000
#007380:00001323
#0113b0:00000013
#013380:0023000000000000
#014320:00000013
#015350:23
#0153b0:00130000
#015380:0000000000230000
#0173b0:00130000
#017380:0023
#017320:00000013
#018350:0023000000000000
#019320:00000013
#020350:23
#019381:00000013
#0203b1:23
#0203b1:00130000
#020381:0000000000230000
#0223b1:00130000
#022381:0023
#022350:00130000
#022320:0023
#022320:00000013
#023350:0023000000000000
#0243a0:14000034
#024370:0000003400000000
#025370:0034000000000034
#0253a0:0034
#0263a0:00240000
#027350:0013000000000000
#027320:0023
#028380:0000000000130000
#0293b0:23
#029350:0000000000000013
#030320:00230000
#031350:13
#031320:0023
#0313b1:13
#031381:0023
#032321:00130000
#032351:0000000000330000
#033321:23
#0333b1:00000013
#034381:0033000000000000
#0343b1:0023
#035351:0000001300000000
#035321:00000023
#0363b1:0013
#037381:33230000
#037321:00000013
#038351:23
#0383b1:0013000000000000
#038381:0023
#039351:00130000
#039321:0023
#039381:0000000000130000
#0403b1:23
#0403b1:0013
#040381:00000023
#040321:0000000000000013
#041351:00230000
#042381:13
#0423b1:0023
#0433b1:00130000
#043381:0023
#043351:0000000000130000
#044321:23
#044321:00000013
#045351:23
#045381:0013000000000000
#0453b1:0023
#046381:0000001300000000
#0463b1:00000023
#046320:0000001300000000
#046350:00000023
#0473b0:0013
#047380:00000023
#048320:0013
#048350:00000023
#049380:13
#050380:00230000
#055350:13
#056350:00230000
#0593b0:0000000000000013
#060380:00230000
#059321:0000000000000013
#060351:00230000
#061321:00000013
#062351:23
#061380:00000013
#0623b0:23
#0623b0:00130000
#062380:0000000000230000
#0643b0:00130000
#064380:0023
#064351:00130000
#064321:0023
#064321:00000013
#065351:0023000000000000
#0663b1:00000013
#067381:23
#066350:00000013
#067320:23
#067380:00130000
#0673b0:0000000000230000
#0693b0:00130000
#069380:0023
#069351:00130000
#069321:0023
#069351:00000013
#070321:0023000000000000
#071321:0000001300000000
#071351:00000023
#072381:00130000
#0723b1:0000000000230000
#0733b1:0000000000000013
#074381:00230000
#074351:00000013
#075321:0023000000000000
#076321:0000001300000000
#076351:00000023
#0773b1:00130000
#077381:0000000000230000
#077350:00130000
#077320:0000000000230000
#0783b0:0013
#078380:0000000000000023
#079320:00000013
#080350:0023
#081390:145454545454545454545454
#081380:005400540054005400540054005400540054005400540054
#082390:545454545454545454240000
#082380:005400540054005400540054005400540054000000000000
#083330:000000000000145454545454
#083340:000000000000000000000000005400540054005400540054
#084330:545454545454545454545454
#084340:005400540054005400540054005400540054005400540054
#085330:545454240000000000000000
#085340:005400540054000000000000000000000000000000000000
#0913a0:14
#091360:0024
#091320:00000014
#092360:24
#0923a0:0014
#093360:24
