This file was generated by Ched 2.6.2.0.
#TITLE "Leia-Remind"
#ARTIST ""
#DESIGNER ""
#DIFFICULTY 0
#PLAYLEVEL
#SONGID ""
#WAVE ""
#WAVEOFFSET 0
#JACKET ""
#REQUEST "ticks_per_beat 480"
#00002: 4
#BPM01: 190
#00008: 01
#TIL00: ""
#HISPEED 00
#MEASUREHS 00
#0011b:1313000013000000
#00116:00130000000000001300000000000000
#00112:0000131300000000
#00117:00000000001300000000000000000000
#00115:0000000000330013
#00118:00000000000000000000000000000013
#0011a:0000000000330000
#00215:13
#0021b:0000001313000000
#00216:00000000000000130000000000000000
#00212:0000140000131313
#00217:00000000000000000000001300001300
#0021a:0014000000000000
#00318:3300131300000000
#00315:00000000001300000000000000000000
#00312:0013
#00314:0000000000130000
#00316:00000013
#0031b:0000000000000013
#00319:00000000000000000000001300000000
#00313:33
#00615:3300131300000000
#00618:00000000001300000000000000000000
#00617:0013
#00612:00000000000000000013000000000000
#00619:0000000000130000
#00614:00000000000000000000001300000000
#0061b:00000013
#0061a:33
#00714:13001300000000130000000000000000
#00719:00130000000013001300000000000000
#00715:00000013
#00718:00000000000000000000000000130000
#00712:0000000000000013
#00819:1300001300000000
#00814:00130000000000130000000000000000
#00818:0013000000000000
#00815:00000013000000000000000000000000
#0081a:00130000
#00813:00000000001300000000000000000000
#0081b:0000000013001313
#00812:0000000000130000
#00816:00000000000000000000000000130000
#00912:1313000000000000
#00917:00130000000000000000000000000000
#00919:00000000130000130000000000000000
#0091b:0000000000001313
#00916:00000000000000000000000000130000
#00914:00130000
#00915:0000000000130000
#01012:1313000000131300
#01017:00130000000000000000001300000000
#01013:0000000000000014
#0101a:0000000000000014
#01018:00140000
#01118:1313000013000000
#01115:00130013000012000000130000000000
#0111b:000000120012000000000000
#01113:000000000000001200000012000000000000000000000000
#01119:001200
#01117:0000000000000012
#01112:00000023
#0111a:00000024
#01218:12120000
#01219:0014000014000000
#0121a:0000001200001200
#0121c:0000000000120000
#01217:0000000000000014
#01318:12
#01319:00001400000000000000001300000000
#0131a:00120000
#01317:00000000000014000013000000000000
#01312:0013
#01314:0000000000130000
#01316:00000013
#0131b:0000000000000013
#01418:1313001300001300
#01414:0000000000131300
#01419:0000000000000013
#01412:13
#01415:0000001300000000
#01410:41
#01514:0013000000000000
#01518:0000130000000013
#0151b:0000001300130000
#01519:13
#01512:00130000
#01515:00000013
#02318:0000001300130000
#0231b:00001313
#02315:00000000000000130000001300000000
#02312:00001300000000000013000000001300
#02418:14
#02414:0000001400000000
#0241a:0000001400001400
#02412:14000014
#02410:41
#02512:0014000000000014
#0251a:0014000014000000
#02514:0014
#02518:0000000000000014
#02612:0013000000001300
#02618:00000013000000001300000000000000
#02615:00000000130000130000000000000000
#0261b:0000001300130000
#02616:0000000000130000
#02617:00000013
#02714:13
#02716:0000001300000000
#02718:0013
#0271b:00000013
#02715:00000013
#02719:0013000000000000
#02712:0013
#02812:13130000
#02818:13
#0281b:00000000130000000000000000130000
#02819:0000001300130000
#02815:0000000000000013
#0291b:00131300
#02914:0000130000000013
#02912:13
#02919:00000013
#02916:0013
#03212:1300000000000013
#03217:13
#03214:0013000013000000
#03216:00130000
#0321b:00130000
#03219:0000000000130000
#03317:13
#03318:00130000
#03312:00130013
#03315:0013
#0331b:0013
#03314:0000000000000013
#0331a:00000013
#03418:0000001300001300
#03415:0000000013000013
#0341b:0013
#03412:00000013
#03414:0013000000000000
#03515:0000131300000000
#03518:0000000000130000
#03512:13000013
#0351b:13
#03612:1300000000000013
#03618:13
#03615:00130000
#0361b:00131300
#03616:0013
#0371b:0013001300000000
#03718:0000130000130000
#03715:0013
#03712:00000013
#03717:00000013
#03710:00000041
#04012:13130000
#04015:0013000000000000
#04018:00130000
#04014:0000000000000013
#04016:0013
#0401b:0013
#04318:0013000000000000
#04315:00130000000000000000000000000000
#04312:00000013130000000000000000000000
#04313:0013
#0431b:13130000
#04319:0000000000130000
#04314:00000013
#0441b:00001313
#04412:13000013
#04413:00130000
#04414:0013
#04419:00130000
#0451a:13000013
#0451b:0013
#04515:00000013
#04519:00130000
#04512:0000000000130000
#04518:0000000000000013
#04514:00130000
#04614:00130000
#0461b:1313
#04612:1300001300000000
#04618:00000013
#04712:13130000
#04719:00130000
#0471b:0013
#04715:00000013
#04710:0041
#04812:00131300
#04815:00000000000013000000001300000000
#04818:00000000000000130000130000000000
#0481b:00000000001300000000000013000000
#04817:13
#04912:13
#0491b:13
#04914:0012000000120000
#04916:00121200
#04918:0000001200000000
#0491c:00000012
#0491a:0000000000000012
#0491f:11
#05013:0012
#05015:00000000001200000000000000001200
#05018:12120000
#05016:0012000000120000
#0501a:0000001200000000
#05019:00000012
#05113:00121200
#0511b:0012000000001200
#05118:1200000000120000
#05116:0000001200000012
#05213:12
#0521b:12000012
#0521a:0000001200000000
#05218:0012000000000000
#05215:00000000120000120000000000000000
#05217:0000000012000012
#05214:0000000000120000
#0531b:1212
#0531b:0012
#0531c:0000000000000012
#05313:00120012
#05317:0012001200120000
#05319:00000000001200000000000000000000
#0541a:00120000
#0541c:00000012
#05418:1200000000120000
#05414:0012000000000000
#05416:0000001200000012
#05412:0012
#05518:0012
#0561a:12
#05612:0013
#0561b:0013
#05613:0000000000000012
#05619:0000000000120000
#05616:00000012
#0561c:00120000
#0571c:00120000
#05716:12120000
#05712:0012
#05718:00000012
#05719:0012001200000000
#05715:0000000000120012
#05812:13
#0581b:13
#0581a:00120013
#05817:0012001200000000
#05818:0000000012000012
#05813:00000013
#05814:00000000001200000000000000000000
#05816:0000000000120000
#08514:0000000000000013
#08512:140014001400000000000000130000130000000000000000
#08513:001400140014000000000000000000000000000000000000
#0851b:2300000013130000
#08516:00000013
#08519:00000000230000000000000000130000
#09019:000014000000140000001400000000130000000000000000000000000000000000000000000000000000000000000000
#09012:0000231300131400
#0901b:00000000000000130000001300000000
#09015:2313
#09018:000000001600000000000000160000000000000000000000000000130000000000000000000000000000000000000000
#0901a:121200000000
#09113:1413
#09119:00000014
#0911a:14
#09112:00000014
#0921a:1313131300000000
#09213:0013131314001300
#09212:0000000000000013
#09219:0014
#09312:1300001300000013
#0931b:0013000000130013
#09316:00000013000000000000001300000000
#09319:00130013
#09317:00000000000000130000000000000000
#09314:0013
#0961b:0000001300000000
#09615:00000000000000130000000000000000
#09618:0013
#09616:0000000000140000
#0961a:0000000000001414
#09612:0000130000001414
#09613:13
#03917:13130000
#03919:0000000000130000
#03912:00130000
#05912:0013
#0591b:0013
#05915:0000001200130000
#05918:0000000000130000
#05919:0012000000000013
#05916:12
#05917:00120000
#05914:0000000000000013
#06018:13003233000000000000000013000000
#06015:13000033000000000000130000000000
#06012:0013
#0601b:0000000000000013
#06016:0032000000000000
#0881b:13
#08815:00130000000000000000000000000000
#08818:0013000000002300
#08812:000000000000000000130000000000000000000000000000160000000000000016000000000000001600000000000000
#0881a:00142400
#08813:000000000000000000000000001400140014001400140014
#08814:000000000000001200120012
#0941a:14
#09412:00000014
#09415:14
#09414:00130000
#09413:0013
#0951a:00131400
#09519:13
#09514:00000013
#03812:0013
#0381a:00000013
#03819:0013000000000000
#06215:0013000000000013
#06218:0000130000130000
#0621b:1300001300000000
#06212:00130000
#06216:00000000000000130000000000000000
#06210:00410000
#06515:0013000000000013
#06516:00000000000000130000000000000000
#06512:00000013
#06517:00000000000000000000001300000000
#06514:0000000000130000
#06519:0013
#0651b:0000001300000000
#07017:0000001300000000
#07019:00000013000000001300000000000000
#0701b:0000000000131300
#07016:00000000000000000000001300000000
#07018:0000000000000013
#07014:00000000130000000013000000000000
#07012:00001300000000130000000000000000
#07013:13
#06715:0000000000000013
#06718:0000130000130000
#0671b:1300001300000000
#06712:0013130000000000
#06716:00000000000000130000000000000000
#07514:0000001300130000
#07516:0013
#07519:00000000000000130000001300000000
#07512:00130013
#07518:0013000000000013
#0751b:00000000000000000013000000000000
#0801b:0000001300130000
#08018:00000013000000001300000013001300
#08012:13000000000000130000001300000000
#08015:00001300130000000013000000130013
#07615:1300001300000013
#07612:00130013
#07618:00001313
#0761b:13000000000000000000130000000013
#07610:41
#07718:0013000000001300
#07715:1300001300000013
#07712:00000013000000001300130000000000
#0771b:00130000
#07816:13
#0781b:1313
#07814:0013000000000000
#07818:00000013000013000000000000001300
#07812:00130013
#07815:0013
#07912:00001300000000130000000000001300
#0791b:00130013
#07915:1300130000131300
#07918:0000001313000000
#0811a:141414141414141414141414
#08119:001400140014001400140014001400140014001400140014
#08112:2423
#08115:00230024
#0821a:141414141414141414000000
#08219:001400140014001400140014001400140014000000000000
#08213:23
#08215:00240000
#08212:0023
#08214:00000023
#08618:161616161616
#08619:001400140014001400140014001400140014001400140014
#0861a:001200120012001200120012
#08612:2423
#08615:00230000
#08613:00000024
#08312:230000240000141414141414
#08313:000000000000000000000000001400140014001400140014
#0831a:24232400
#08316:0023000000000000
#08318:00000023
#08412:141414141414141414141414
#08413:001400140014001400140014001400140014001400140014
#0841b:23
#08417:00240024
#0841a:0023
#08712:000000160016001600160000
#08713:230000000000001400140014001400140014000000000000
#08714:000012121200
#0871a:00240000
#08718:0023
#0871b:00000023
#08912:160016001600000000240000
#08913:001400140014001400140014000000000000000000000000
#08914:001200120012000000000000
#08918:000000000000000000160016
#08919:000000000000240000000000000000000000001400140014
#0891a:000000230012
#0891b:23
#00412:1313000013000000
#00417:00130000000000001300000000000000
#0041b:0000131300000000
#00416:00000000001300000000000000000000
#00418:0000000000330013
#00415:00000000000000000000000000000013
#00413:0000000000330000
#00518:13
#00512:0014001313000000
#00517:00000000000000130000000000000000
#0051b:0000000000131313
#00516:00000000000000000000001300001300
#0051a:00140000
#0161b:1313
#01619:0013000000000000
#01614:00000013000000000000000000000000
#01617:00130000
#01615:0000000013130013
#01612:0000001300000000
#01618:0000000000000013
#01719:0013130000130000
#01715:00130013
#01714:0000001313000000
#01712:0000000000000013
#0171b:00000013
#01812:0013000000130000
#01817:0013
#01819:00000000000000000000001300000000
#01816:00000013
#0181b:0000001300000013
#01814:00000000000000130000000000000000
#01918:1313001300001300
#01914:0000000000131300
#01919:0000000000000013
#01912:13
#01915:0000001300000000
#02014:0013000000000000
#02018:00130000
#0201b:0000001300130000
#02019:13000000000000000000000000000013
#02012:0000130000000013
#02115:0000000013130013
#0211b:0013000013000000
#02112:0000001300000000
#02118:0000000000000013
#02116:13
#02114:00000013000000000000000000000000
#02117:00130000
#02219:0013130000130000
#02215:00130013
#02214:0000001313000000
#02212:0000000000000013
#0221b:00000013
#03017:0013000000000000
#03015:00130013
#03012:0013
#03018:0013
#0301b:00130013
#03112:1300000000130000
#03114:0013000013000000
#0311b:13000013
#04218:0000000000000013
#04216:13
#04214:0013
#0421b:13000013
#04115:00001313
#0411b:00130000
#04112:0000000000130000
#06112:1300000000130000
#06118:2313001300001300
#0611b:0000000000000013
#06115:0000001300001300
#0611f:21
#0631b:1313
#06318:0013000000000013
#06315:0000130013130013
#06312:0000001300000000
#0641b:0013000000001300
#06415:00130013
#06412:0000001313000013
#06418:0000130000130000
#06417:00000000000000000000000000000013
#06618:1313001300001300
#06612:1300000000131300
#0661b:0000000000000013
#06615:0000001300000000
#0691b:0000130000131300
#06914:0000000000000013
#06915:13
#06918:13
#06912:0000001313000000
#06818:0013
#06817:00130000000000000000000000000000
#0681b:0000001300130000
#06816:00000000001300000000000000000000
#06819:00130000
#06814:0013000000000000
#06812:13
#06815:0000000000131300
#07218:0013000000000013
#07215:0000130000130000
#07212:1300001300000000
#0721b:00130000
#07217:00000000000000130000000000000000
#0711b:1300001300130000
#07115:23000013
#07112:0013000000000013
#07116:0000001300000000
#07118:00000013
#07312:1300000013000013
#07315:0013000000000000
#07318:00131300
#0731b:0000001300130000
#07317:0000000000000013
#07418:00130013
#0741b:0000001313000013
#07415:0000130000130000
#07412:0013000000001300
#07416:00000000000000000000000000000013
#0025a:0014000000000000
#00252:0000140000000023
#00257:0000000000000023
#0085b:0013
#00852:0000000000130000
#0105a:0014
#01054:0000001400000000
#01058:00140000
#0115a:00000014
#02458:44
#02454:0000003400000000
#0245a:0000006400004400
#02452:54000054
#02552:0034000000000034
#0255a:0064000044000000
#02554:0054
#02558:0000000000000064
#08152:3433
#08155:00430044
#0815a:545454545454545454545454
#08159:005400540054005400540054005400540054005400540054
#08253:33
#08252:0033
#08255:00440000
#08254:00000043
#0825a:545454545454545454000000
#08259:005400540054005400540054005400540054000000000000
#09457:00000014
#0945a:64
#09452:00000054
#09455:14
#09555:0014
#0955a:0064
#01452:53
#01458:1300005300000000
#01454:00000063
#01559:63
#01552:00630000
#0155b:0000000000130000
#02852:00230000
#02859:0000000000530000
#0285b:00000000000000000000000000230000
#02759:0053000000000000
#02657:00000053
#0015b:0023
#00156:0023
#0325b:00630000
#03259:0000000000230000
#0335a:00000023
#03454:0063000000000000
#0355b:63
#03555:0000002300000000
#0365b:0023
#03957:00530000
#03959:0000000000530000
#04554:00230000
#04452:00000023
#0465b:63
#04652:0000002300000000
#04658:00000053
#04752:00230000
#0475b:0063
#04755:00000023
#04857:53
#05952:0053
#0595b:0063
#05959:0000000000000063
#05955:0000000000230000
#05958:0000000000230000
#05954:0000000000000053
#06058:23
#06055:23
#06052:00340000
#0605a:00440000
#08652:3433
#08655:00430000
#08653:00000044
#08658:262626262626
#0865a:002200220022002200220022
#08659:005400540054005400540054005400540054005400540054
#08753:330000000000006400640064006400640064000000000000
#0875a:00440000
#08758:0033
#0875b:00000043
#08752:000000260026002600260000
#08754:000022222200
#0915a:64
#09152:00000054
#09153:14
#09159:00000014
#09259:0064
#09253:0014
#00759:0053
#00754:0063000000000000
#0065b:00000063
#00954:00630000
#00959:00000000130000530000000000000000
#00952:00000000000000130000000000000000
#0095b:0000000000130000
#03859:0053000000000000
#03757:00000053
#0435b:00630000
#04359:0000000000230000
#0765b:63
#07655:1300006300000000
#07658:00000053
#07652:00000013
#07755:53
#0775b:00530000
#07757:0000000000130000
#0785b:0063
#07858:0000000000000053
#0795b:00000063
#07955:00630013
#07958:0063
#08352:000000000000646464646464
#08353:000000000000000000000000006400640064006400640064
#0835a:0044
#08358:00000033
#08452:646464646464646464646464
#08453:006400640064006400640064006400640064006400640064
#0845b:43
#08457:00340034
#0845a:0043
#08552:646464000000000000000000
#08553:006400640064000000000000000000000000000000000000
#0855b:43
#08559:00330000
#08852:000000262626
#08853:000000000000000000000000006400640064006400640064
#08854:000000000000002200220022
#0885a:0044
#08858:00000033
#08952:260026002600000000340000
#08953:006400640064006400640064000000000000000000000000
#08954:002200220022000000000000
#08958:000000000000000000260026
#08959:000000000000340000000000000000000000005400540054
#0895a:000000430022
#0895b:43
#09058:002600260000000000000000
#09059:005400540054000000000000000000000000000000000000
#0905a:222200000000
#09055:43
#09052:00330000
#00552:0014000000000000
#0055a:00140000
#0055b:0000000000000023
#00556:0000000000000023
#00452:0023
#00457:0023
#0165b:0063
#01655:0000000013000063
#01759:00530000
#01754:0053
#0175b:00000053
#01952:53
#01958:1300005300000000
#01954:00000063
#02059:63
#02052:00630000
#02056:0000000000130000
#0215b:0063
#02155:0000000013000063
#02259:00530000
#02254:0053
#0225b:00000053
#0315b:23
#03154:0063
#03152:0000000000230000
#02954:0000000000000063
#02956:0063
#04256:63
#04254:0063
#04054:0000000000000063
#04056:0063
#06152:53
#06158:1300005300001300
#06155:00000063
#0625b:63
#06252:00630000
#06256:00000000000000230000000000000000
#06258:0000000000130000
#0635b:0063
#06355:0000000013000063
#06458:00530000
#06452:0053
#0645b:00000053
#06457:00000000000000000000000000000023
#06455:00130000
#06652:53000063
#06658:1300005300001300
#06752:00630000
#06756:00000000000000230000000000000000
#0675b:53
#06758:0000000000130000
#0695b:00530063
#06955:63
#06952:0063
#0685b:0000000000630000
#06855:0000000000130000
#0715b:63
#07156:0000006300000000
#07158:00000053
#07155:13
#07252:53
#0725b:0000530000430000
#07257:00000000000000230000000000000000
#07255:00130000
#07455:00630000
#0745b:0063
#07452:00000063
#07456:00000000000000000000000000000023
#07458:00000013
#07352:0053
#07357:0000000000000053
#07358:0013
#01852:0013000000000000
#02357:0013000000000000
#06555:0013000000000000
#07552:0033000000000000
#09657:00140000
#0013b0:0013
#0013a0:0000000000330000
#001370:00000023
#001361:0013
#001351:0000000000330000
#001321:00000023
#002321:0000000000000013
#003331:33
#003361:0023000000000000
#002370:0000000000000013
#003380:33
#0033b0:0023000000000000
#004320:0013
#004330:0000000000330000
#004360:00000023
#004371:0013
#004381:0000000000330000
#0043b1:00000023
#0053b1:0000000000000013
#0063a1:33
#006371:0023000000000000
#005360:0000000000000013
#006350:33
#006320:0023000000000000
#0063b0:00000013
#007390:23
#007340:0013000000000000
#007320:0000002300000000
#007390:0013
#0073b0:00000023
#009340:00130000
#009320:00000000000000230000000000000000
#009391:00000000000000130000000000000000
#0093b1:0000000000230000
#010321:00140000
#010341:0000002400000000
#010380:0000001400000000
#0103a0:0024
#011320:00000013
#013340:0023000000000000
#014320:13
#014350:00230000
#014380:0000001300000000
#0143b0:0000000000230000
#014340:00000013
#014320:0000000000000023
#015390:13
#0153b0:0023000000000000
#015320:00130000
#015360:0000000000230000
#0163b0:0013
#016380:00000023
#016350:0000000000000013
#017320:0023000000000000
#017390:00130000
#0173b0:0000002300000000
#017340:0013
#017320:0000000000230000
#0173b0:00000013
#018370:0023000000000000
#019320:13
#019350:00230000
#019380:0000001300000000
#0193b0:0000000000230000
#019340:00000013
#019320:0000000000000023
#020390:13
#0203b0:0023000000000000
#020320:00130000
#020360:0000000000230000
#0213b0:0013
#021380:00000023
#021350:0000000000000013
#022320:0023000000000000
#022390:00130000
#0223b0:0000002300000000
#022340:0013
#022320:0000000000230000
#0223b0:00000013
#023370:0023000000000000
#024320:14
#024340:00240000
#0243a0:0000001400000000
#024380:0000000000240000
#024320:00000014
#025340:24
#0253a0:0014000000000000
#025380:0000002400000000
#025340:0014
#025360:00000024
#025380:0000000000000014
#026360:0024000000000000
#026370:00000013
#027390:23
#027390:0013000000000000
#0273b0:0000002300000000
#028320:00130000
#028360:0000000000230000
#028391:0000000000130000
#0283b1:00000000000000000000000000530000
#029381:23
#029361:0013
#029341:00000023
#029341:0000000000000013
#030321:0023000000000000
#0313b1:13
#031371:0023
#031340:0013
#031320:0000000000530000
#031350:00000023
#0323b0:00130000
#032390:0023
#032390:0000000000130000
#032370:0000000000000023
#0333a0:00000013
#034370:0023000000000000
#034341:0013000000000000
#034321:0000002300000000
#0353b1:13
#035381:00230000
#035351:0000001300000000
#035321:0000000000230000
#0363b1:0013
#036371:0000000000000023
#037321:13230000
#037371:00000013
#038391:23
#038320:13230000
#038391:0013000000000000
#0383b1:0023
#038321:00000013
#039321:23
#039371:00130000
#039391:0023
#039320:00001323
#039391:0000000000130000
#0403b1:23
#040361:0013
#040341:00000023
#0403b0:00000013
#0413b0:23
#040341:0000000000000013
#041321:00230000
#0413b1:00001323
#042361:13
#042341:0000002300000000
#0423b0:00132300
#042341:0013
#042321:00000023
#0433b1:00130000
#043391:0023
#043391:0000000000130000
#044371:23
#044321:00000013
#045341:0023000000000000
#045341:00130000
#045361:0023
#0463b1:13
#046391:00230000
#046321:0000001300000000
#046351:00000023
#046380:00000013
#0473a0:23
#047320:00130000
#047360:0023
#0473b1:0013
#047381:00000023
#047350:00000013
#048320:23
#048371:13
#0483b1:00230000
#055321:12
#056321:00220000
#059321:0013
#059351:0000000000330000
#059331:00000023
#0593b0:0013
#059380:0000000000330000
#0593a0:00000023
#059390:0000000000000013
#060380:33003233000000000000000000000000
#0603a0:00240000
#059341:0000000000000013
#060351:33000033000000000000000000000000
#060361:0032000000000000
#060321:00240000
#061321:13
#061351:00230000
#061381:0000001300000000
#0613b1:0000000000230000
#061351:00000013
#061321:0000000000000023
#0623b1:13
#062381:0023000000000000
#062321:0000130000230000
#062361:00000000000000530000000000000000
#0633b1:0013
#063381:00000023
#063351:0000000000000013
#064321:0023000000000000
#064381:00130000
#0643b1:0000002300000000
#064321:0013
#064351:0000000000230000
#0643b1:00000013
#064371:00000000000000000000000000000053
#0653b1:0023000000000000
#066321:13
#066351:00230000
#066381:0000001300000000
#0663b1:0000000000230000
#066321:00000013
#066351:0000000000000023
#0673b1:13
#067381:0023000000000000
#067321:0000130000230000
#067361:00000000000000530000000000000000
#0683b1:0000000000130000
#068381:0000000000000023
#069351:13
#069321:00230000
#0693b0:00130000
#069380:0000002300000000
#069320:0013
#069350:0000000000230000
#0693b0:00000013
#070370:0023000000000000
#0713b0:13
#071370:00230000
#071360:0000001300000000
#071320:0000000000230000
#071380:00000013
#0713b0:0000000000000023
#072320:13
#072350:0023000000000000
#0723b0:0000130000230000
#072370:00000000000000530000000000000000
#073320:0013
#073360:00000023
#073370:0000000000000013
#0743b0:0023000000000000
#074350:00130000
#074320:0000002300000000
#0743b0:0013
#074380:0000000000230000
#074320:00000013
#074360:00000000000000000000000000000053
#075320:0023000000000000
#0763b0:13
#076380:00230000
#076350:0000001300000000
#076320:0000000000230000
#076380:00000013
#0763b0:0000000000000023
#077350:13
#077320:0023000000000000
#0773b0:00130000
#077370:0000000000230000
#0783b0:0013
#078380:00000023
#078380:0000000000000013
#0793b0:0023000000000000
#079350:00130000
#079320:0000002300000000
#079380:0013
#0793b0:0000000000230000
#0793b0:00000013
#080380:0023000000000000
#0813a0:145454545454545454545454
#081390:005400540054005400540054005400540054005400540054
#0823a0:545454545454545454240000
#082390:005400540054005400540054005400540054000000000000
#083320:000000000000145454545454
#083330:000000000000000000000000005400540054005400540054
#084320:545454545454545454545454
#084330:005400540054005400540054005400540054005400540054
#085320:545454240000000000000000
#085330:005400540054000000000000000000000000000000000000
#086380:165656565656
#086390:005400540054005400540054005400540054005400540054
#0863a0:005200520052005200520052
#087380:26
#087320:000000160056005600260000
#087330:000000000000005400540054005400540054000000000000
#087340:000052525200
#088320:000000165656
#088330:000000000000000000000000005400540054005400540054
#088340:000000000000005200520052
#089320:565656260000
#089330:005400540054005400540054000000000000000000000000
#089340:005200520052000000000000
#089380:000000000000000000160056
#089390:000000000000000000000000000000000000005400540054
#0893a0:000000000052
#0903a0:525200000000
#090390:005400540054000000000000000000000000000000000000
#090380:005600260000000000000000
#0913a0:14
#091370:0024
#091320:00000014
#092350:24
#092390:0014
#093360:24
#0943a0:14
#094370:00000024
#094321:00000014
#095351:0024
#0953a0:0014
#096370:00240000
