This file was generated by Ched 2.6.2.0.
#TITLE "Leia-Remind"
#ARTIST ""
#DESIGNER ""
#DIFFICULTY 0
#PLAYLEVEL
#SONGID ""
#WAVE ""
#WAVEOFFSET 0
#JACKET ""
#REQUEST "ticks_per_beat 480"
#00002: 4
#BPM01: 190
#00008: 01
#TIL00: ""
#HISPEED 00
#MEASUREHS 00
#0011a:1414
#00114:00140000
#0901a:0014
#09012:00000014
#09312:00140000
#09316:0014
#0931a:00000014
#09612:0000000000000016
#09618:00140016
#09614:0014
#08818:14
#08814:00140000
#0881a:0014
#0131a:0014
#01314:00000014
#00414:1414
#0041a:00140000
#00518:0000001400000014
#00512:0000000000140000
#02114:00140000
#0211a:0014
#02118:14
#02218:0014
#02214:00140000
#02212:00000014
#04212:00000014
#04214:14
#04218:0014
#06214:14
#06210:00410000
#06118:26000014
#06112:0000001600000000
#0611f:21
#06418:0014
#06414:00140000
#00212:0000001400000014
#00218:0000000000140000
#00313:00140000
#00319:00140000
#00613:00140000
#00619:00140000
#00612:00000014
#06318:0000000000000016
#06312:0016
#05912:00140000
#0591a:00140000
#05914:0000000000001434
#05918:0000000000001434
#05913:0034
#05919:0034
#06812:14
#06818:00140000
#0691a:00140000
#06914:0014
#06712:14
#0661a:00000014
#06612:0000001600000000
#06618:16
#0721a:14
#07114:00000014
#07118:0000001600000000
#07112:26
#07412:0014
#07418:00140000
#07312:0000000000000016
#07318:0016
#0771a:14
#07612:26000014
#07618:0000001600000000
#07610:41
#07818:14
#07814:00140000
#07914:00140000
#07918:0014
#08118:14
#08314:2414
#08518:0014
#08512:00000014
#08614:00000014
#08618:14
#0871a:14
#08714:00140000
#08914:00140000
#08918:0014
#08912:00000014
#0111a:00000014
#01112:00140000
#01116:0014
#01014:00141400
#01018:0000001400000000
#01414:00000014
#0141a:14
#01410:41
#0151a:14
#01514:00140000
#01618:1414
#01612:00140000
#01712:00140014
#01718:0014
#0181a:0014
#01814:00000014
#01912:00000014
#01918:14
#02018:14
#02014:00140000
#02614:00000014
#0271a:0014000000000000
#02714:0014
#02914:0014
#02918:1400000000000014
#03014:00140000
#03114:14
#03118:0014
#03112:00000014
#02818:00140000
#02812:0000000000140000
#03712:00000014
#03714:14
#0371a:00140000
#03710:00000041
#03818:0014000000000000
#03814:0014
#04014:0014
#0401a:0000000000000014
#04018:14
#04114:00140000
#0391a:00140000
#03914:0000000000140000
#0481a:0014
#04814:00140014
#04818:14
#04712:00140014
#04718:0014
#04710:0041
#0491a:14
#0491f:11
#09118:14
#09114:00000014
#09218:0014
#09414:14
#09418:00000014
#09514:0014
#03218:00140000
#03212:0000000000140000
#03318:14
#03314:00000014
#03518:14000014
#03514:0000001400000000
#03618:0014
#0341a:0014000000000000
#03414:0014
#0431a:00140000
#04314:0000000000140000
#04418:14
#04412:00000014
#04518:0014000000000000
#04514:0014
#04618:14000014
#04612:0000001400000000
#00718:0014000000000000
#00714:0014
#0071a:0000000000000014
#00812:0014
#05418:00000013
#08018:0024
#02410:41
#05952:00540000
#0595a:00640000
#05954:00000024
#05958:00000024
#08158:54
#08354:0064
#0115a:00000014
#0605a:00440000
#06052:00340000
#09158:14
#09154:00000014
#09258:0014
#09454:14
#09458:00000014
#09554:0014
#009380:00000000140000340000240000000000
#023380:0014
#024380:34000034
#0243a0:0000003400000000
#0253a0:0034000000000034
#025380:0034
#026380:00240000
#0503b0:0000000013000033
#0513b0:00333333
#0523b0:3300003300002300
#053350:0000130033000033
#054350:00230000
#055380:13
#056380:0023000000000000
#056320:0000000013000033
#057320:00333333
#058320:3300003300002300
#059320:00140000
#059330:0034
#059340:0000000000005434
#060320:00240000
#0593a1:00140000
#059391:0034
#059381:0000000000005434
#0603a1:00240000
#062381:0000140000240000
#064341:00000014
#065341:0024000000000000
#0673a1:0000140000240000
#068321:0000000014000024
#0693a1:00000014
#0703a1:0024000000000000
#072341:00140000
#072321:0000000000240000
#074381:00000014
#0753a1:0024000000000000
#077321:00140000
#077341:0000000000240000
#0783a1:0014
#078381:0000000000000024
#079321:00000014
#080341:00240000
#080381:0014
#081381:34
#0823a1:00000024
#083341:1434
#085321:00240000
