This file was generated by Ched 2.6.2.0.
#TITLE ""
#ARTIST ""
#DESIGNER ""
#DIFFICULTY 0
#PLAYLEVEL
#SONGID ""
#WAVE ""
#WAVEOFFSET 0
#JACKET ""
#REQUEST "ticks_per_beat 480"
#00002: 4
#BPM01: 150
#00008: 01
#TIL00: ""
#HISPEED 00
#MEASUREHS 00
#00219:14
#00319:14
#00413:14
#00513:14
#0071a:14
#00710:41
#0081a:14
#00912:14
#01012:14
#01118:14
#01218:14
#01314:14
#01414:14
#03518:2616
#0351f:00210000
#03618:16
#03610:41
#03712:1616
#03812:16
#03918:16
#03912:0016
#04018:16
#04112:16
#04118:0016
#04212:16
#04718:2616
#04812:1616
#04918:16
#04912:0016
#05018:16
#05112:1616
#05218:1616
#05312:16
#05318:0016
#05412:16
#05512:0016
#05518:26
#05510:00410000
#05618:16
#05612:0016
#05718:1616
#05818:16
#05912:16
#05918:0016
#06012:16
#06018:0016
#06618:14
#06714:14
#06718:0014
#06814:14
#06518:14
#06514:0014
#06919:1414
#07013:1414
#0271a:14
#0271f:11
#02812:14
#0291a:14
#03012:14
#01518:14
#01510:41
#01618:14
#01714:14
#01814:14
#0191a:14
#0201a:14
#02112:14
#02212:14
#02310:41
#06210:41
#023380:14
#024380:24
#025340:14
#026340:24
#0313a0:14
#0323a0:24
#033320:14
#034320:24
#043390:14
#044390:24
#045330:14
#046330:24
#061320:16
#062320:26
#063380:16
#064380:26
#071390:14
#072390:24
#073330:14
#074330:24
#075390:1400000000000024
