This file was generated by Ched 2.6.2.0.
#TITLE ""
#ARTIST ""
#DESIGNER ""
#DIFFICULTY 0
#PLAYLEVEL
#SONGID ""
#WAVE ""
#WAVEOFFSET 0
#JACKET ""
#REQUEST "ticks_per_beat 480"
#00002: 4
#BPM01: 150
#00008: 01
#TIL00: ""
#HISPEED 00
#MEASUREHS 00
#00117:1300000000000000000000000000000000000000000000000000000033333333
#00112:00130000000000000000000000000000
#00119:00000013000000000000000033000000
#00114:00130000
#0011b:0000000000000000000000001300000000000000003300000000000000000000
#00116:00000000000000130000000000000000
#0011a:0000000000000000000000000000000000000000000033330000000000000000
#00118:0000000000000000000000000000000000000000000000000033333300000000
#00218:00130000
#0021b:00000000000000001300001300000000
#00212:1300130000000013
#00312:0013000000000019
#00319:00130000
#00316:0000001300000000
#00314:00130000
#0051c:0012000000000000
#00519:00121200
#00516:0000001200120000
#00513:0000000000001212
#00618:00000013
#00615:0000000000000013
#00612:0013000000000000
#00614:00130000
#00616:0000001300000000
#00718:13001313
#0071b:00130000
#00715:00000000000000130000000000000000
#00712:0000000000130000
#00710:41
#0081b:0013000000000000
#00815:0000130000000013
#00812:00000013
#00918:1300000000130013
#00915:0000131300001300
#01018:00130000
#01012:0000001300000000
#0101b:00000013
#01015:0013000000000013
#01118:13000013
#01115:0000000013000013
#01112:00000013
#0111b:0000000000130013
#01212:0013001300000000
#0121b:00130013
#01218:0000001300000013
#01215:00130000
#01315:1300000000130000
#01318:0013001300001300
#0131b:0000130000000013
#01312:0000001300000013
#01418:0013000000000013
#01415:00130013
#01412:0013000000000000
#0141b:00130000
#01712:0013000000130000
#01718:0000001300001300
#01715:1300130000000013
#0181b:0013000000000000
#01815:0000130000000013
#01818:0000001300000000
#01812:00000013
#01918:13000000000000130000000013000000
#0191b:0000130000130000
#01915:0000130013000013
#01912:13
#02012:0013000000000000
#02015:0000130000000013
#02018:0000001300001300
#0201b:0000000000130000
#02118:13
#02119:0013000000003300
#0211a:00130000
#0211b:0000001300000000
#02116:0000000000130000
#02114:00330013
#02112:0000000000000013
#02113:0033000000000000
#02217:0013000000000000
#02219:00130000
#0221b:0000001300000000
#02212:0013000000000000
#02214:00130000
#02216:0000001300000000
#0231b:0013000000000013
#02319:00130013
#02317:2300001300130000
#02312:23131313
#02310:41
#02414:00000013
#02416:0000000000000013
#0241b:13131313
#02518:00000013
#02515:0000000000000013
#02612:0000130000000013
#02616:0000001300130000
#02614:00000013
#02619:00000033
#02918:0013000000001300
#02915:1300000000130013
#0291b:0000001300000013
#02912:0013000000000000
#03018:0000000000131300
#03015:00000013
#03012:00130000
#03112:1300000000000013
#03118:0000000000130000
#03115:00000013
#03113:00130000
#03114:0013
#0311a:00130000
#03119:0013
#0351b:0000000013000013
#03517:0000230000130000
#03515:0000000000000013
#03512:0000130000130000
#0351f:00210000
#03615:0013000013001300
#03618:1300131300130000
#0361b:0000000000000013
#03612:0000001300000000
#03610:41
#03712:1300000000000013
#03718:0013
#03715:0000000000130000
#0371b:00000013
#03818:0013130000000013
#03815:00130013
#03812:0000000000130000
#03918:0013001300130013
#03915:23131313
#0391b:23000013
#03912:0000001300000013
#04018:00130013
#04015:0013001300000013
#0401b:0000001300130000
#04118:13130000
#04115:0013001300000000
#0411b:0000001300000013
#04117:0000000000130000
#04119:00000013
#04112:1300000000130000
#04114:00000013
#04116:0000000000000013
#04212:0013130000000000
#04217:00130000
#04215:00000013
#04218:0000000000000013
#0421b:0000000000130000
#04312:0033330000130013
#04318:00000013
#0431b:1300000000130000
#0441b:0013130000000000
#04415:00000013
#04418:0000000000000013
#04412:0000000013130000
#04519:0013000000001300
#04517:00130000
#0451b:1300000000000013
#04516:13
#04514:0013000000001300
#04512:0000131300130000
#05815:00130013
#05818:0013130000000013
#05812:0000000000130000
#05915:2313000000000000
#05918:00130000
#05912:0000001300130000
#0591b:23000013
#06212:0013000016000013
#06214:00130013
#0621b:0000001300130000
#06219:00130013
#06217:0013000000000013
#06216:0000001300130000
#06210:41
#06512:0000130000000014
#06518:00001313
#06515:0000000000130000
#06517:00130000
#06617:0014000000000000
#06615:0000001400000000
#0661a:0000000000140000
#06718:0000130000160000
#06712:0000001600000000
#06717:0000000000000013
#06713:24
#06719:24
#06817:0013000000000000
#06819:00130000
#0681b:0000001300000000
#06818:0000000000130013
#06815:00000013
#06814:00330000
#06912:13000013
#06913:0013000000000000
#06919:0013000000000000
#0691b:0000001300130013
#06918:13000013
#06914:00130000
#06915:0000001300130000
#0691a:00130000
#0701b:0000130000130000
#07012:0013001300000000
#07015:00130013
#07018:0013000000000013
#07112:13
#07115:0000130000000013
#07118:0013001300130000
#0711b:13
#07116:00000014
#07218:0000130000130000
#07215:0013000000000000
#07212:000000000000002c
#0741b:1313000013001300
#07415:00130013
#07418:0000001300130013
#07412:1313000013000013
#01512:00130000
#01518:00000000000000130000000000000000
#01515:2300000013001313
#0151b:0000000000130000
#01510:41
#01615:0013000000000000
#01618:0000130000000013
#0161b:0000001300001300
#01612:13
#02712:0013000000000013
#02714:00130013
#02716:2300001300130000
#0271b:23131313
#0271f:11
#02812:13131313
#03212:0013000000000014
#0321b:0000001300130000
#0321a:0000000000000024
#03414:0014001400002300
#03418:14141400
#03412:0000000000230000
#03416:0000000000000023
#03417:0000000000230000
#03419:00000023
#0341b:0000000000000023
#04612:00160000
#04618:00160024
#0461b:0013000000000000
#04614:0000000000240024
#04712:0000000013000013
#04716:0000230000130000
#04718:0000000000000013
#0471b:0033333333333333000000000000000000000000130000000000000000000000
#04717:0013
#04818:0013000013001300
#04815:1300131300130000
#04812:0000000000000013
#0481b:0000001300000000
#0491b:1300000000000013
#04915:0013
#04918:0000000000130000
#04912:00000013
#05015:0013130000000013
#05018:00130013
#0501b:0000000000130000
#05115:0013001300130013
#05118:23131313
#05112:23000013
#0511b:0000001300000013
#05215:00130013
#05218:0013001300000013
#05212:0000001300130000
#05315:13130000
#0531b:13
#05317:0013
#05312:0000000000130000
#05314:00000013
#05316:0000000000000013
#05319:00000033
#0541b:0013000000000000
#05419:00130000
#05417:0000001300000000
#05418:0000000000240024
#05414:00330024
#0551b:0013
#05517:0000230000130000
#05512:0000130000130013
#05518:0000000000000013
#05510:00410000
#05618:0000130000130000
#05615:0013001300001300
#0561b:1300001300000013
#05612:0013
#05712:1300000000000013
#05718:0013
#05715:0000000000130000
#0571b:00000013
#0601b:0013000000130000
#06019:00130000
#06017:0000001300000013
#06016:0000000000130000
#06012:0000001300000013
#06014:00130000
#0631b:0000000000000013
#06316:0000000000000013
#06417:0000001300000000
#06412:0000001300000000
#07316:00140000
#07312:003c
#07512:0013000013001300
#07518:00130013
#07515:0000001300130023
#0751b:0013000013000023
#0611b:00333333
#06116:00333333
#00252:00130000
#00352:0000000000000059
#00958:6300000000000063
#00955:0000006300000000
#01052:0000001300000000
#01252:0000005300000000
#01758:0000005300000000
#01755:0000000000000053
#01858:0000005300000000
#0225b:0000005300000000
#02256:0000005300000000
#02958:0053000000000000
#0295b:0000002300000000
#02955:0000000000000053
#03052:00230000
#03058:00000053
#03552:00530000
#0355b:0000000000000053
#03557:00130000
#03252:0000000000000054
#0325a:0000000000000054
#03658:23
#03652:0000006300000000
#03655:0023
#03752:0000000000000053
#03858:00530000
#03958:0000000000000053
#04055:0000005300000000
#0415b:0000000000000053
#04252:00530000
#04356:0000001300000000
#04352:0000000000000053
#0445b:00530000
#04652:00560000
#04658:00560000
#0495b:0000000000000063
#05155:0000000000000063
#05258:0000006300000000
#04752:0000000000000063
#04756:00130000
#04855:23
#0485b:0000005300000000
#04858:0023
#05055:00630000
#05355:00530000
#0535b:53
#05752:0000000000000053
#05552:00530000
#05558:0000000000000063
#05557:00130000
#0565b:23
#05655:0000005300000000
#05652:0023
#05858:00530000
#06057:0000005300000053
#0605b:0000000000530000
#06056:0000000000530000
#06052:0000000000000053
#06257:0000000000000053
#06252:0000000000000053
#0635b:0000000000000053
#06356:0000000000000053
#06457:0000005300000000
#06452:0000005300000000
#06552:0000000000000014
#06657:0014000000000000
#06655:0000001400000000
#0665a:0000000000140000
#06752:0000003600000000
#06758:0000000000460000
#06955:0000000000530000
#06952:00000053
#07058:0063001300000000
#07052:0000001300000000
#0705b:0000530000130000
#07252:000000000000005c
#07356:00240000
#07555:0000000000000013
#0755b:0000000000000013
#03358:00000014
#03354:00000014
#0145b:00130000
#0013b0:0000000000000000000000000000000000000000133300000000000000000000
#0013a0:0000000000000000000000000000000000000000000033330000000000000000
#001390:00000033
#001380:0000000000000000000000000000000000000000000000000033333300000000
#001370:0000000000000000000000000000000000000000000000000000000033333333
#002370:23
#002360:00000000000000001300002300000000
#002370:0000000000000013
#003370:0023000000000000
#0033b0:0000001300000023
#003321:0000000000000019
#005321:23
#0053b1:0000000000000013
#0063b1:0000002300000000
#007321:13230000
#007351:0000000000000013
#008351:0023000000000000
#008381:0000001300002300
#009381:13
#0093b1:00230000
#009351:0000001300000000
#009321:0000000000230000
#009381:0000000000000013
#0103b1:0023000000000000
#011351:13230000
#011380:00132300
#012320:0000001300000000
#012350:00000023
#0153b0:13230000
#015380:0000000000000013
#016380:0023000000000000
#016350:0000001300002300
#017380:0000001300000000
#0173b0:0000000000230000
#017350:0000000000000013
#018320:0023000000000000
#018380:0000001300000000
#0183b0:00000023
#019380:0000000000000013
#020380:0023000000000000
#020350:0000001300230000
#021320:13
#021330:0033000000000000
#021340:00330000
#021350:0000002300000000
#0213b0:0000000000130000
#021390:00000033
#021370:0000000000000023
#022360:0000001300000000
#022320:00000023
#0223b1:0000001300000000
#022371:00000023
#024351:13230000
#024321:0000001300230000
#025321:1323
#025351:00330000
#0253b0:1323
#025380:00330000
#0263b0:0000001300330000
#026390:00000033
#026370:0000000000000023
#028380:13230000
#0283b0:00001323
#029380:0013000000230000
#0293b0:0000005300000000
#029350:0000000000000013
#030320:00530000
#030350:0000000000230000
#030380:00000013
#0313b0:23
#031380:0000000000000013
#032380:0023000000000000
#032350:0000001300230000
#032320:0000000000000014
#033340:54585400545854005458540024000000
#0323a1:0000000000000014
#033381:5454545454542400
#033341:00000058000000580000005800000000
#035321:00130000
#035361:0023
#0353b1:0000000000000013
#036381:53
#0363b1:0023000000000000
#036321:0000001300230000
#036351:0053
#0373b1:13230000
#037350:00132300
#037320:0000000000000013
#038350:0023000000000000
#038380:00130000
#0383b0:0000000000230000
#039380:0000000000000013
#0403b0:0023000000000000
#040350:0000001300000000
#040320:0000000000230000
#0413b0:0000000000000013
#042370:0023000000000000
#042320:00130000
#042360:0000000000230000
#043320:1333330000000000
#043360:0000002300000000
#043320:0000000000000013
#044360:0023000000000000
#0443b0:00130000
#044370:0023
#045370:0000001300230000
#045360:0000000000000013
#046360:0023000000000000
#046320:00162300
#046381:00160000
#0463b1:0023
#0473b1:1333333333333333000000000000000000000000000000000000000000000000
#047361:00230000
#047321:0000000000000013
#048351:53
#048321:0023000000000000
#0483b1:0000001300230000
#048381:0053
#049321:13230000
#049380:00132300
#0493b0:0000000000000013
#050380:0023000000000000
#050350:00130000
#050320:0000000000230000
#051350:0000000000000013
#052320:0023000000000000
#052380:0000001300000000
#0523b0:0000000000230000
#0533b0:13
#053380:00230000
#053351:00130000
#053321:0023
#053371:0000000000130000
#053391:00000033
#0533b1:0000000000000023
#054361:0013000000000000
#054341:00330000
#054321:0000002300000000
#055321:00130000
#055361:0023
#055381:0000000000000013
#0563b1:53
#056381:0023000000000000
#056351:0000001300230000
#056321:0053
#0573b1:13
#057381:00230000
#057350:00130000
#057320:0023
#057320:0000000000000013
#058350:0023000000000000
#058380:00130000
#0583b0:0000000000230000
#059370:0000001300230000
#059360:0000000000000013
#060360:0023000000000000
#060370:0000001300000033
#0603b0:0000000000330000
#0613b0:00333333
#0623b0:23
#060361:0000000000130000
#060321:0000000000000033
#061361:00333333
#062361:23
#062371:0000000000000013
#0633b1:0000000000000033
#064371:0000003300000000
#0653b1:23
#062320:0000000000000013
#063360:0000000000000033
#064320:0000003300000000
#065360:23
#067320:0000000000000013
#068320:0033000000000000
#068340:00330000
#068360:0000002300000000
#069350:0000000000130023
#069320:00000033
#070380:0013002300000000
#0703b0:00330000
#071320:0000001300230000
#0713b0:0000000000000013
#0723b0:0023000000000000
#072350:0000001300230000
#072320:000000000000001c
#073360:00340000
#073320:00003c2c
