This file was generated by Ched 2.6.2.0.
#TITLE ""
#ARTIST ""
#DESIGNER ""
#DIFFICULTY 0
#PLAYLEVEL
#SONGID ""
#WAVE ""
#WAVEOFFSET 0
#JACKET ""
#REQUEST "ticks_per_beat 480"
#00002: 4
#BPM01: 150
#00008: 01
#TIL00: ""
#HISPEED 00
#MEASUREHS 00
#0021a:00130000
#00215:0013
#00318:0013001300000000
#00312:00130000
#00315:0000000000130013
#0031b:00000013
#0061b:0013001300000000
#00615:00130000
#00612:00000013
#00618:0000000000000013
#0071b:0013
#00715:0000000000130000
#00718:00000013
#00712:0000000000000013
#00710:41
#00815:00130013
#00818:0013000000000013
#0081b:0000001300000000
#01015:00000013
#01018:0000130000000013
#01012:0013001300000000
#0111b:0013
#01115:0000000000130000
#01118:00000013
#01112:0000000000000013
#01215:00130000
#01212:00000013
#01218:0013000000000013
#0121b:0000001300000000
#01315:1300130000000013
#0131b:0013000000000000
#01318:0000001300001300
#01312:0000000000130000
#0221b:0013000000000000
#02215:00130000
#01415:0000130000000013
#0141b:0013000000001300
#02315:0013001300001300
#02318:2300130000000013
#0231b:0000000000130000
#02310:41
#02415:00000013
#02418:0000000000000013
#02412:13
#0241b:0000001300000000
#0261b:0000000000130013
#02615:00000013
#02618:00130000
#02612:0000001300000000
#02915:1300000000130000
#02918:00000013
#0301b:0000000000130000
#03015:00000013
#03115:0000000000130000
#03118:00000013
#03219:0000000000130000
#03214:0000000000130000
#03212:0000000000000013
#0321b:0000000000000023
#03515:0013
#03518:0000000000130000
#03512:0000000000000013
#0351b:00230000
#0351f:00210000
#03618:0013001300000000
#03612:00130000
#03615:0000000000130013
#0361b:00000013
#03610:41
#03715:0013
#0371b:1300000000130000
#03712:00000013
#03718:0000000000000013
#0381b:0000000000130013
#03815:00000013
#03812:00130000
#03918:0013001300000000
#03912:23130000
#03915:00001313
#0391b:0000000000130013
#04012:0013001300000000
#04018:0000130000130013
#04015:00000013
#04112:13130000
#0411b:0013001300000000
#04115:0000000000130013
#04118:00000013
#04219:0013000000000000
#04214:0013000000000000
#0431b:13
#04315:0013000000000000
#04318:0000130000130013
#04312:0000001300001300
#04412:00130000
#04418:0000000000130013
#04415:00000013
#04512:13
#04518:0013000000000000
#04515:0000130000130013
#0451b:0000001300001300
#0461b:00130000
#04612:0000000000240000
#0461a:00000024
#04616:0000000000000024
#05012:0000000000130013
#05018:00000013
#0501b:00130000
#05115:0013001300000000
#0511b:23130000
#05118:00000013
#05112:0000000000000013
#0521b:0000130000130013
#05215:0000001300001300
#05315:13130000
#0531b:00130000
#05312:00001313
#05318:0000000000130013
#05415:0013001300000000
#0541b:00130000
#0541a:0000000000240000
#05412:00000024
#05416:0000000000000024
#06212:0013000000130013
#0621b:00130013
#06215:0000001300000000
#06218:0013
#06210:41
#00915:13000013
#00918:0000001300000000
#0091b:0000000000000013
#00118:1300001300000000
#00115:00000013000000000000003333333333
#0201b:0000000000130013
#02015:0013000000001300
#02018:00130000
#02012:0000001300000000
#02112:1300000000130013
#02118:0013000000001300
#02115:00130000
#0211b:0000001300000000
#03418:13
#03415:0013000000000000
#03419:00130000
#03414:0000001300000000
#0341a:00001324
#03412:0000000000240000
#03416:0000000000000024
#06518:0000130000130013
#06512:0013
#06515:00000013
#06615:0013000000000000
#0661b:0000001300000000
#06612:0000000000130000
#0671b:0000130000000013
#06715:2600001300000013
#06718:0000000000130000
#06712:0000000000130000
#06812:0013001300000000
#06818:00130000
#0681b:0000000000130013
#06815:00000013
#06912:13130000
#06918:0013001300000000
#06915:0000000000130013
#0691b:00000013
#07018:0013001300000000
#07012:00130000
#0701b:0000000000130000
#07015:0000000000130000
#07118:00130000
#07112:0000001300000000
#0711b:0000000000000013
#07215:0000001300000023
#07218:0000000000130000
#0721b:0000000000000023
#0741b:0013001300000013
#07415:00130000
#07412:00001313
#07418:0000000000130000
#07512:0013001300000023
#07518:00130000
#0751b:00001313
#07515:0000000000130000
#00518:0013000000130013
#00515:00130013
#00512:0000001300000013
#0051b:0013
#00412:00000000000000130000000000000000
#06115:00000000000000133300000033000000
#0611b:00000000000000133300000033000000
#06112:00330000
#06118:00330000
#07312:00000000000000133300000033000000
#07318:00000000000000133300000033000000
#07315:00330000
#0731b:00330000
#01512:0013
#01518:0000000000130000
#01515:00000013
#0151b:0000000000000013
#01510:41
#01612:00130000
#0161b:0000001300000000
#01618:0013000000001300
#01615:1300000000000013
#0181b:0013001300000000
#01815:0000130000000013
#01818:00000013
#01715:0000001300000000
#01718:00130013
#01712:0013000000000013
#0171b:13
#01912:0013
#01918:0000000000130000
#01915:00000013
#0191b:0000000000000013
#02515:00000013
#02518:0000000000000013
#06315:00000000000000000000000000003313
#0271f:11
#02718:0013001300001300
#02715:2300130000000013
#02712:0000000000130000
#0281b:13
#02812:0013
#0551b:0000230013130000
#05512:0000230013130000
#05518:0000000000000013
#05510:00410000
#05615:0013001300001300
#0561b:0000000000130000
#05618:0000130000000013
#05715:13
#05718:00001313
#05712:0000000000130013
#0581b:0000130000130013
#05815:00000013
#05918:0013001300000000
#05912:23130000
#05915:00000013
#0591b:0000000000000013
#06012:0000130000000013
#06018:0000001300000013
#06015:0000000000130000
#04718:0034000013000000
#04715:0000000000130000
#0471b:0000000000000013
#04716:00240000
#04717:00000034000000000000000000000000
#04719:00340000000000000000000000000000
#04815:0013001300000000
#0481b:00130000
#04818:0000000000130013
#04812:00000013
#04918:0013
#04912:1300000000130000
#0491b:00000013
#04915:0000000000000013
#06414:0000003300000000
#01455:00130000
#00955:63
#00958:0000005300000000
#0025a:00130000
#00255:0063
#06655:0013000000000000
#0665b:0000001300000000
#06652:0000000000130000
#06558:0000000000000013
#0705b:0000000000630000
#07055:0000000000630000
#07058:0000001300000000
#07152:0000005300000000
#0715b:0000000000000063
#07552:0000000000000013
#05155:0000006300000000
#05152:0000000000000053
#04358:0000000000000053
#04555:0000000000000063
#00355:0000000000000053
#0375b:63
#03758:0000000000000053
#0245b:0000006300000000
#02452:53
#00452:00000000000000230000000000000000
#06155:00000000000000230000000000000000
#0615b:00000000000000230000000000000000
#07358:00000000000000230000000000000000
#07352:00000000000000230000000000000000
#0355b:00130000
#0555b:00130000
#05552:00130000
#01755:0000006300000000
#06355:00000000000000000000000000000023
#03252:0000000000000053
#0325b:0000000000000053
#06252:0000000000000053
#04756:00140000
#0285b:63
#02852:0053
#05755:63
#05752:0000000000000053
#05958:0000005300000000
#0595b:0000000000000063
#03358:00000013
#03355:00000013
#06052:0000000000000053
#06058:0000000000000053
#0725b:0000000000000053
#07255:0000000000000053
#04952:53
#04955:0000000000000063
#001350:00000000000000000000133333333333
#002320:23
#002350:0013
#002320:00000000000000000000003300002300
#003350:0000000000000013
#004320:00000000000000530000000000000000
#005350:23
#007320:13230000
#009350:13
#009320:00230000
#009380:0000001300000000
#0093b0:0000000000230000
#011350:13230000
#0153b0:13230000
#017350:0000001300000000
#017320:0000000000230000
#019380:13230000
#0223b0:0000001300000000
#022380:00000023
#024320:13
#024350:00230000
#0243b0:0000001300000000
#024380:0000000000230000
#025320:1424
#025340:00340000
#0253a1:1424
#025381:00340000
#0283b1:13
#028381:00230000
#028321:0013
#028351:00000023
#029381:0013000000000000
#0293b1:0023
#029351:0000000000000013
#030321:0023
#0313b1:1323
#031381:00330000
#031321:0000000000000013
#032351:0033000000000000
#032321:0000002300000000
#032321:0000000000000013
#033351:00000023
#0323b0:0000000000000013
#033380:00000023
#0373b0:13
#037380:00230000
#037380:0000000000000013
#0383b0:0023000000000000
#042340:00130023
#042391:00130023
#043381:0000000000000013
#0443b1:0023000000000000
#045351:0000000000000013
#046321:0023000000000000
#0473a1:14
#047391:00340000000000000000000000000000
#047381:0034000000000000
#047371:00000034000000000000000000000000
#047361:00240000
#049321:13
#049351:00230000
#049351:0000000000000013
#050321:0023000000000000
#051351:0000001300000000
#051321:0000000000230000
#051321:0000000000000013
#052351:0023000000000000
#057351:13
#057321:00230000
#057321:0000000000000013
#058351:0023000000000000
#059381:0000001300000000
#0593b1:0000000000230000
#0593b1:0000000000000013
#060381:0023000000000000
#060381:0000000000000013
#061381:00330000
#0613b1:00000000000000533300000033000000
#062381:23
#060320:0000000000000013
#061320:00330000
#061350:00000000000000533300000033000000
#062320:23
#062320:0000000000000013
#063350:00000000000000000000000000003353
#064340:0000003300000000
#065320:23
#0703b0:0000000000130000
#071380:23
#070351:0000000000130000
#071321:23
#071321:0000001300000000
#071351:0000000000230000
#0713b1:0000000000000013
#072381:0023000000000000
#072351:0000000000000013
#073351:00330000
#073321:00000000000000533300000033000000
#074351:23
#0723b0:0000000000000013
#0733b0:00330000
#073380:00000000000000533300000033000000
#0743b0:23
