This file was generated by Ched 2.6.2.0.
#TITLE ""
#ARTIST ""
#DESIGNER ""
#DIFFICULTY 0
#PLAYLEVEL
#SONGID ""
#WAVE ""
#WAVEOFFSET 0
#JACKET ""
#REQUEST "ticks_per_beat 480"
#00002: 4
#BPM01: 150
#00008: 01
#TIL00: ""
#HISPEED 00
#MEASUREHS 00
#00115:1414001414000000
#0011b:00130000000000130000000000000000
#00117:00000014001400000000000000000000
#00112:00130000
#0011a:0000000000000000000000000000000000000000003434343434343434343434
#0021b:00000000130000000000001300000000
#00212:0000000013000013
#00216:0000130000140000
#00217:0000000000000013
#00312:0013000000000016
#00319:00000000001300000000000000000000
#00316:0000001300000000
#00314:00130000
#00317:00000013000000000000000000000000
#0031b:1300001300000000
#0051c:0012000000000000
#00516:0012001200120000
#00519:0012
#00513:0000000000001212
#00518:16
#00517:0000000000000013
#0061b:00000013
#00615:00000000000000000000000000130000
#00612:0013000000000000
#00614:00130000
#00616:0000001300000000
#00618:0000000000000013
#00718:1313000000000013
#0071b:00130013
#00717:00000000000000130000000000000000
#00715:0000000000130000
#00712:0013
#00710:41
#0081a:0014000000000000
#00816:00140000
#00812:0000001400001300
#0081b:0000000000000013
#00918:13000000001300000000130000001300
#00915:13000000130013000000001300001300
#0091b:00000013
#01012:0000131400000000
#0101a:0000001400000000
#0101b:00000013
#01018:00000013000000000000000000001300
#01015:00001300000000000000000000130000
#01118:13130013
#01115:13000000000000001300000000130000
#01112:00001300000013000000001300001300
#0111b:0013001300130013
#01212:0013001300000000
#0121b:00000013000013000000000013000000
#01218:00000000001300000000000000001300
#01215:00130000
#01315:1300000000130000
#01312:0013001300001300
#0131b:00130000
#01318:00130000000000000000001300000000
#01317:0000001300000000
#01316:0000130000000013
#01416:0000130000130000
#01415:0000000000000013
#01412:0013000013001300
#01417:0013
#0141b:00000000000000000000130000130000
#01418:00000000000000000000000000000013
#01815:00000013000013000000000013000000
#0181b:00130000
#01818:00001300000013000000000000130000
#01812:0000000000000013
#01918:00000000000000130000000013001300
#01912:1313
#0191b:0000000000130000
#01915:0000000000000013
#02012:0013000013000000
#02015:00000000130013000000001300001300
#02018:00000013000013000000000013000000
#0201b:1300000000130000
#02217:0013000000000000
#02219:00130000
#0221b:0000001300000000
#02214:00000013000000000000000000000000
#02216:00000000001300000000000000000000
#02212:00000013
#0231b:0013000000000013
#02319:00130013
#02312:2313130013131300
#02318:23
#02310:41
#02414:00000013
#02412:0000000000000013
#0241b:1313130013131300
#0251b:00000013
#02512:0000000000000013
#02516:00000013
#02517:0000000000000013
#02612:0000130000000013
#02615:0000001300000000
#02616:0000000000130000
#02614:00000013
#02618:00000000001300000000000000000000
#02619:00000013
#02617:0000000000000013
#02915:1300000000000013
#02918:0013000000130013
#0291b:00000013
#02912:00161616
#03015:00000013
#03012:00130000
#0301b:00000013
#03018:0000160016130000
#03517:0000230013130000
#03516:0000001300000013
#03512:00130000
#0351b:0000001300000013
#0351f:00210000
#03612:0014001300001300
#03616:00140000
#03617:00000013
#0361b:0000000013000013
#03618:13
#0361a:0000001400000000
#03619:0000000000130000
#03615:0013
#03614:13
#03610:41
#03712:1300001300000013
#03719:0013
#03715:0000000000130000
#0371b:13000013
#03717:0013000000000013
#03716:00130000
#0381b:1313000000000000
#03812:0000130000130000
#03815:0000001313001300
#03818:0000000000000013
#03817:00130000
#03918:00001300000000130000130000001300
#03915:00130000130000001300000013000000
#0391b:23000013
#03912:0000001300000013
#04019:00130000
#04012:0013000013000000
#04015:1300001300000013
#0401b:1300001300130000
#04018:00001313
#04014:00130000
#04118:00130000130000000000000000000000
#04115:00001300001300000000000000000000
#0411b:0000001300000013
#04117:00000000000000000000001300000000
#04119:00000000000000000000000000130000
#04112:1300001300130000
#04114:00000013
#04116:0000000000000013
#04212:0013130000000000
#04218:0000130000000013
#04214:00000013
#0421a:0000000000130000
#04219:00000013
#04213:0000000000000013
#04312:1300000000130013
#04315:0013000000001300
#0431b:00130013
#04317:1313
#04319:0013000000130000
#04416:00130000
#04415:00000013
#04418:0000000000000013
#0441b:1313130013131300
#04412:0000000000130000
#04512:00130013
#04519:0013000000001300
#04517:0000131300000000
#0451b:1300000000000013
#04516:1313
#04514:0013000000130000
#05917:00130013
#05916:0000000000130013
#05912:00000013000013000000000013000000
#05919:0013000000000000
#05918:00000000000000130000000000000000
#05914:0013
#05915:00130000000000000000000000000000
#0591b:23000000000000000013000000001300
#06212:0013000018000013
#06214:0000001300130000
#06217:0013000000000013
#06219:0000001300130000
#06216:00180018
#06210:41
#06512:0000130013000014
#06516:00000013
#06514:0000000000130000
#06519:0000000000330000
#0661a:0014000000000000
#06615:0000001400000000
#06617:1300000000140000
#06612:13130013
#0661b:00000000000000001300000000130000
#06619:00000000130000000000000000000013
#06614:0000000013000013
#06718:0000130000161300
#06712:0000131600001300
#0671b:0000000013000013
#06715:0013
#06716:23
#0681b:0013000000130000
#06815:00000000000000000000001300000000
#06818:0000000000001313
#06817:0000001300000000
#06819:00130000
#06812:0000000000000013
#06814:00330000
#06912:1300001300000000
#06914:0013000000003300
#06919:00000013000000000000000013000000
#06918:0000001300000000
#0691b:00000000001300000000130000000000
#06917:00130000000000000000000000001300
#06916:00130000
#07017:0000000000130000
#07015:00000013
#07018:0000000000000013
#07012:0013000000130000
#07014:00130000
#07016:0000001300000000
#07019:00330000
#07112:1300000000001314
#07115:00130000
#07118:0013001300000000
#0711a:0000000000140000
#0711b:13000000001300000000000000000000
#07116:00000014
#0741b:1313000013001300
#07415:00160016
#07418:0000001300130013
#07412:1313000016000013
#03412:14000000130000001400001300000000
#03416:0014001400240000
#0341a:0000140000000024
#0341b:1313
#03414:00000000000000000000000000130000
#03418:00000024
#04612:13131c0000000024
#0461a:00000000000000000000001400000000
#04618:00000000000000000000000000140000
#04616:0000000000240000
#04614:00000024
#04716:0000000000130000
#0471b:0000000000130000
#04717:0000000013000013
#04712:0000240013000013
#0471a:0034343434343434000000000000000000000000000000000000000000000000
#05018:0000001313001300
#05015:0000000000000013
#05012:1313000000000000
#0501b:0000130000130000
#05016:00130000
#05114:0013000000000000
#05116:00130000
#05115:00000000000000130000000000001300
#05119:0013
#05117:0000000000130000
#05112:23000000000000000013000013000000
#05118:00130000000000000000000013000000
#0511b:00000013000013000000000000001300
#0521b:00130000
#05218:00001300000013000000001300001300
#05215:00000013000000000000130000000000
#05212:0000001300001300
#05315:13130000
#0531b:1300001300000000
#05318:00001314
#05316:0000000000140000
#0531a:0000000000000014
#05312:00001300000000000000001400000000
#05314:00000000000000000000000000140000
#05615:0013161300000000
#05612:13001313
#05619:0000000000000013
#0561b:1313
#05618:0000001300130000
#05617:00000013
#05614:0000000000000013
#05712:0000130000130013
#0571b:1300000000131300
#05716:1300001300001300
#05717:0013000013000013
#0581b:0013130000000000
#05816:13
#05817:00000000000000130000000000000000
#05812:0000000000130000
#05818:0000000000000013
#05815:00000013
#05518:0000000000000013
#05515:0000000000000013
#05512:1300001300000000
#05517:1300001300000000
#05519:0013000000000000
#05514:0013000000000000
#05516:0000230013130000
#0551b:00130000
#05510:00410000
#0601b:0013000000130000
#06019:00130000
#06017:0000001300000013
#06016:0000000000130000
#06014:00130000
#06012:1300001300000000
#06417:0000001300000000
#06412:00000000000000000000001300000000
#0641b:0000131300000000
#06416:00000000000000000000001300000000
#07218:0000000000130000
#07212:0014000000000014
#0721a:0000001400000000
#07216:0000140000000024
#0721b:00130000
#0731a:00143400
#07312:0014141414141400
#07512:001300001300002c
#07515:0000161300130000
#07518:16001613
#0751b:0013000000000000
#00412:00000000000000120000000000000000
#00418:00121416
#01512:00130013
#01516:00000000000000130000000000000000
#01518:0000000000130000
#01515:2313000000000013
#0151b:0013
#01510:41
#01612:1314000000000013
#01616:00140000
#0161b:00000013
#0161a:0000001400000000
#01712:1300000000001313
#01718:13000000130000000000001300001300
#0171b:0013001300000000
#01715:00000000001300000000130000000000
#02112:00130000000000000000000000000000
#02117:13001300000000000000000000130000
#02114:00000013000000000000000013000000
#02119:00000000130000000000001300000000
#02116:00000000001300000000130000000000
#02712:0013000000000013
#02714:00130013
#0271b:2313130013131300
#0271f:11
#02715:23
#02812:1313130013131300
#0311b:0000000013130000
#03119:00130013
#03112:1300160016131600
#03115:0000001300000000
#03218:1613160016130000
#0321b:0000001300000000
#03212:00130000
#0321a:0000000000000024
#03318:1414141414140000
#03314:1414141414140000
#0481a:0014000000000000
#04816:00140013
#04815:13
#04812:0000001413000013
#04814:0000000000130000
#0481b:0000001300001300
#04818:0013
#04819:13
#0491b:1300001300000013
#04914:0013
#04918:0000000000130000
#04912:13000013
#04916:0013000000000013
#04917:00130000
#05412:00000000000014000000001400000000
#05414:00000000140000000000000000140000
#05416:0014000000240000
#0541a:00000014000000000000000000002400
#05418:00000000001400000000000024000000
#0611b:00131313
#0611a:0000001300000000
#06118:0000000000130013
#06112:00131313
#06113:0000001300000000
#06115:0000000000130013
#06317:0000001300000000
#0631b:00131300
#06319:0000000000130000
#00352:0000000000000056
#0035b:2300005300000000
#00958:6300000000000063
#00955:0000006300000000
#0105a:0000001400000000
#01052:0000001400000000
#01252:0000005300000000
#0225b:0000005300000000
#02958:0053000000000000
#02955:0000000000000053
#02952:00363636
#03052:00230000
#0305b:00000053
#03058:00464600
#03552:0000530000430000
#0355b:0000000000000053
#03556:0000002300000000
#03557:00430000
#03658:23
#03652:0000006300000000
#03655:0023
#03752:0000002300000053
#0375b:53
#03756:00530000
#03757:0023000000000000
#03857:00530000
#03958:0000000000000053
#04055:0000005300000000
#0405b:23
#04052:0023
#0415b:0000000000000053
#04252:00530000
#04352:5300001300000053
#04355:0023000000000000
#0435b:00130013
#04456:00530000
#0445b:00130013
#04652:005c0000
#05155:0000000000000063
#05258:0000006300000000
#05355:00530000
#0535b:53
#05752:0000630000000053
#0575b:53
#05757:0023000000000000
#05756:0000002300000000
#05558:0000000000000063
#0555b:0000630000330000
#05557:0000002300000000
#05556:00330000
#0565b:23
#05655:0000005300000000
#05652:0023
#0585b:00530000
#05856:23
#05857:00000000000000230000000000000000
#06057:0000005300000023
#0605b:0000000000530000
#06056:0000000000530000
#06052:23
#06252:0000000000000053
#06457:0000005300000000
#06452:00000000000000000000002300000000
#0645b:0000005300000000
#06456:00000000000000000000002300000000
#06552:0000000000000014
#0665a:0014000000000000
#06655:0000001400000000
#06657:0000000000140000
#06752:0000003600000000
#06758:0000000000460000
#07256:0000000000000054
#0735a:00240000
#07352:00141414
#07552:000000000000001c
#07558:1616
#07555:00160000
#0015b:00130000000000130000000000000000
#00152:00130000
#0025b:00430000
#00257:0000000000000053
#00452:00000000000000220000000000000000
#00652:0013000000000000
#00654:00130000
#00656:0000001300000000
#00557:0000000000000053
#01155:53
#01158:00530000
#01152:0023000000000000
#0115b:0000002300000000
#01357:0000005300000000
#01752:5300000000000053
#0175b:0000005300000000
#01858:0000006300000000
#01958:0000000000000053
#02055:0000005300000000
#0205b:23
#02052:0023
#03358:5464546454641400
#03354:6454645464541400
#04552:00130013
#04557:0000005300000000
#0455b:0000000000000053
#04752:0000140000000063
#04855:23
#0485b:0000005300000000
#04858:0023
#0495b:0000002300000063
#04952:63
#04956:0023000000000000
#04957:00630000
#05056:00630000
#05956:0000000000000053
#0615a:0000002300000000
#06158:0000000000230023
#0615b:00535353
#06152:00636363
#06153:0000002300000000
#06155:0000000000230023
#06357:0000002300000000
#0635b:00130000
#07056:0000003300000000
#07057:0000000000430000
#07455:00160016
#07452:0016
#02352:00130013
#0245b:00130013
#0275b:00130013
#02852:00130013
#01456:00130000
#0013a0:0000000000000000000000000000000000000000143434343434343434343434
#002320:24
#0023b0:0000000013230000
#002370:0000000000000013
#0033b0:53
#003370:0023000000000000
#0033b0:0000001300000000
#003380:0000000000000023
#003321:0000000000000016
#004321:00000000000000520000000000000000
#005321:26
#005391:0000122200000000
#005321:0000000012220000
#005371:0000000000000013
#0063b1:0000002300000000
#007321:13230000
#007351:0000000000000013
#008351:0023000000000000
#008381:0000001300002300
#009381:13
#0093b1:00230000
#009351:0000001300000000
#009321:0000000000230000
#009381:0000000000000013
#0103b1:0023000000000000
#011351:13230000
#011321:0053000000000000
#011380:00132300
#0113b0:0000005300000000
#012320:0000001300000000
#012360:00000023
#013370:0000001300000000
#0133b0:0000000000230000
#0133b0:0000000000000013
#014370:0033000000000000
#0143b0:00230000
#0153b0:13230000
#015380:0000000000000013
#016380:0023000000000000
#016350:0000001300002300
#017320:13
#017350:00230000
#0173b0:0000001300000000
#017380:0000000000230000
#017320:0000000000000013
#018350:0023000000000000
#018380:0000001300000000
#0183b0:00000023
#019380:13230000
#019351:00000000130000230000000000000000
#019381:0000000000000013
#0203b1:53
#020381:0023000000000000
#020351:0000001300230000
#020321:0053
#0213b1:0000001300230000
#021321:0000000000000013
#022321:0023000000000000
#0223b1:0000001300000000
#022361:00000023
#023371:0000001300230000
#024361:13
#024321:00230000
#024321:0000001300000000
#024361:0000000000230000
#025321:1424
#0253a1:00340000
#0253a0:1424
#025320:00340000
#0263b0:0000001300230000
#027360:0000001300230000
#028370:13
#0283b0:00230000
#0283b0:0013
#028370:00000023
#029380:0013000000000000
#0293b0:0023
#029350:0000000000000013
#030320:00530000
#030350:0000000000230000
#0303b0:00000013
#031370:23
#031350:0000000000000013
#032350:0023000000000000
#032350:0000001300230000
#032320:0000000000000014
#033380:54545424
#033340:0054005400540000
#0323a1:0000000000000014
#033341:54545424
#033381:0054005400540000
#035321:0000130033230000
#035361:0000005300000000
#0353b1:0000000000000013
#036381:53
#0363b1:0023000000000000
#036321:0000001300230000
#036351:0053
#0373b1:13230000
#037371:0053000000000000
#037360:00132300
#037320:0000005300000000
#037320:0000000000000013
#038360:0023000000000000
#038370:00130000
#0383b0:0000000000230000
#039380:0000000000000013
#0403b0:53
#040380:0023000000000000
#040350:0000001300230000
#040320:0053
#0413b0:0000000000000013
#042370:0023000000000000
#042320:00130000
#042350:0000000000230000
#043320:1300332300000000
#043350:0033000000000000
#043320:0000000000000013
#044360:0023000000000000
#044360:00130000
#044320:0023
#045370:0000001300000000
#0453b0:0000000000230000
#0453b0:0000000000000013
#046370:0023000000000000
#046320:001c0000
#046360:0024
#0473a0:1434343434343434000000000000000000000000000000000000000000000000
#047320:00240000
#047320:0000000000000013
#048350:53
#048320:0023000000000000
#0483b0:0000001300230000
#048380:0053
#049320:13230000
#049360:0053000000000000
#049371:00132300
#0493b1:0000005300000000
#0493b1:0000000000000013
#050371:0023000000000000
#050361:00130000
#050321:0000000000230000
#051351:0000000000000013
#052321:0023000000000000
#052381:0000001300000000
#0523b1:0000000000230000
#0533b1:13
#053381:00230000
#053350:00130000
#053320:0023
#0553b0:0000130033230000
#055370:0000005300000000
#055380:0000000000000013
#0563b0:53
#056380:0023000000000000
#056350:0000001300230000
#056320:0053
#0573b0:13230000
#057370:0053000000000000
#057321:00132300
#057361:0000005300000000
#057321:0000000000000013
#058361:53
#058321:0033230000000000
#0583b0:0000130000230000
#058370:00000000000000530000000000000000
#059360:0000000000000013
#060320:53
#060360:0023000000000000
#060370:0000001300000033
#0603b0:0000000000330000
#0613b0:0053330033003300
#0613a0:0000005300000000
#061380:0000000000530000
#061350:0000000000000053
#0623b0:23
#060361:0000000000130000
#060321:0000000000000033
#061321:00333333
#061331:0000005300000000
#061351:0000000000530000
#061381:0000000000000053
#062321:23
#062321:0000000000000013
#063371:0000005300000000
#063321:0000000000000033
#064371:0000003300000000
#064321:00000000000000000000005300000000
#065371:23
#063380:0000000000000013
#0643b0:0023000000000000
#0643b0:0000001300000000
#064360:00000000000000000000005300000000
#0653b0:23
#065370:00133300
#065390:0000000000330000
#0653b0:00000023
#067360:0000000000000013
#068360:0033000000000000
#068340:00330000
#068320:0000002300000000
#069360:0000000000130000
#069340:00000033
#069320:0000000000000023
#070370:0013000000000000
#070390:00330000
#0703b0:0000002300000000
#071320:0000001300230000
#0713b0:0000000000000013
#0723b0:0023000000000000
#072350:0000001300230000
#072360:0000000000000014
#0733a0:00343400
#073360:00000028
