This file was generated by Ched 2.6.2.0.
#TITLE ""
#ARTIST ""
#DESIGNER ""
#DIFFICULTY 0
#PLAYLEVEL
#SONGID ""
#WAVE ""
#WAVEOFFSET 0
#JACKET ""
#REQUEST "ticks_per_beat 480"
#00002: 4
#BPM01: 150
#00008: 01
#TIL00: ""
#HISPEED 00
#MEASUREHS 00
#00213:00140000
#00219:2414
#00313:1414
#00319:00140000
#00718:14140000
#00714:00001414
#00710:41
#0111a:14140000
#01114:00001414
#00914:14140000
#00918:00001414
#01518:14140000
#01512:00001414
#01510:41
#01714:14140000
#0171a:00001414
#0161a:1414
#01614:00140000
#01812:1414
#01818:00140000
#0191a:14
#01914:00140000
#01918:0014
#01912:00000014
#02018:14
#02014:00140000
#0201a:0014
#02112:14
#02118:00140000
#02114:0014
#0211a:00000014
#02214:14
#02218:00140000
#02212:0014
#0231a:00000014
#02310:41
#02412:00000014
#02518:1414
#02512:00140014
#0261a:1414
#02614:00140014
#0271a:00000014
#02718:14
#0271f:11
#02814:14
#02812:00000014
#0621a:0000000024000014
#06210:41
#06818:0000000000140000
#06814:00000014
#06812:0034340000000000
#07219:0000000000140014
#07213:0000140000140014
#07218:0014000000000000
#0721a:0000001400000000
#07518:0000000014000016
#07514:00140000
#07512:14000016
#0751a:14
#07418:1414
#07414:00140014
#07118:1400001400000000
#07114:0000140000140000
#07119:00000014
#07112:0000000000000014
#03114:0014
#03118:00000014
#00116:14141400
#01312:14140000
#01318:00001414
#03218:0014
#03214:00000014
#03414:0000000000140014
#03418:00000014
#03612:1414
#03618:00140014
#03610:41
#0351a:00240014
#03514:0014
#0351f:00210000
#04212:14
#04119:00000014
#04113:0014
#04118:00140000
#04114:14
#02918:14
#02912:00140000
#0291a:0014
#02914:00000014
#03018:14
#03012:00140000
#03014:00000014
#0301a:0014
#0691a:1434343400343434
#06912:1434343400343434
#04314:14
#04318:00140000
#04312:00001414
#0431a:00001414
#04618:1400000000140014
#04614:00140014
#04418:14
#04414:00140000
#0441a:00001414
#04412:00001414
#04514:14
#04518:00140000
#04512:00001414
#0451a:00001414
#03714:00001414
#03718:0000000000140000
#03712:14
#0371a:00140000
#0381a:14
#05313:00000014
#05319:0014
#05314:00140000
#05318:14
#05414:0000000000140014
#05418:00000014
#05712:00160000
#05718:1614
#05714:0000000000140000
#0571a:00000014
#05812:16
#05912:00160000
#05918:1614
#0591a:00000014
#05914:0000000000140000
#06012:16
#06112:14
#06114:0014
#06418:0000001400000000
#06512:00140000
#06518:0014
#06514:0000000000140000
#0651a:0000000000000014
#06618:0034001400340000
#06718:00140000
#06714:0000001400000014
#0671a:0000000000140000
#05612:16000014
#05618:0000160000140000
#05614:0014
#05518:00260016
#05512:0016
#05510:00410000
#03918:00001414
#03914:0000000000140000
#0391a:14
#03912:00140000
#04012:14
#04912:00160000
#04918:16
#0491a:00001414
#04914:0000000000140000
#05012:16
#05118:0000160000140000
#05112:16001414
#05218:16
#0481a:14
#04814:00140000
#04812:00000014
#04818:0014
#04712:00260016
#04718:0016
#0701a:0034343400000000
#07012:0034343400000000
#02854:64
#02758:54
#0625a:0000000000000064
#07558:0000000000000016
#0355a:00140000
#07259:0000000000000054
#07253:0000000000000064
#00553:0000000000000014
#0695a:64
#06952:54
#06152:54
#06154:0024
#06458:0000002400000000
#06658:0000002400000000
#0655a:0000000000000064
#06754:0000000000000064
#05558:00160000
#05454:0000000000000014
#03454:0000000000000014
#04658:0000000000000014
#04752:00160000
#004390:1424
#005330:1400340034003424
#008380:1424
#010340:1424
#0123a0:1424
#014320:1424
#023380:14
#0233a0:0024
#024340:14
#024320:0024
#027380:14
#0273a0:0024
#028340:14
#028320:0024
#0313a0:14240000
#032320:14240000
#033380:14
#0343a0:24
#038340:00140024
#040380:00140024
#0423a0:00140024
#050380:00160026
#052320:00160026
#0543a0:14240000
#058320:00160026
#060380:00160026
#061320:14
#061340:0054
#062320:24
#0623a0:0000000014000034
#063380:0000000000000034
#064380:0000003400000000
#0653a0:24
#0653a0:0000000000000014
#066380:0034003400340000
#0663a0:0000000000000024
#067340:0000000000000014
#068320:0034342400000000
#0693a0:1434343400343434
#0703a0:0034343400000000
#070380:0000000000240000
#069321:1434343400343434
#070321:0034343400000000
#070341:0000000000240000
#072331:0000000000000014
#073321:00000024
#072390:0000000000000014
#0733a0:00000024
