This file was generated by Ched 2.7.0.0.
#TITLE ""
#ARTIST ""
#DESIGNER ""
#DIFFICULTY 0
#PLAYLEVEL
#SONGID ""
#WAVE ""
#WAVEOFFSET 0
#JACKET ""
#REQUEST "ticks_per_beat 480"
#00002: 4
#BPM01: 134
#00008: 01
#TIL00: ""
#HISPEED 00
#MEASUREHS 00
#00119:14
#00213:14
#0031a:14
#00412:14
#00518:14
#00510:41
#00612:14
#0071a:14
#00814:14
#00918:14
#01012:14
#0111a:14
#01318:14
#01414:14
#0151a:14
#01510:41
#01612:14
#02214:14
#02318:14
#02412:14
#05312:0016
#05318:26
#05418:16
#05412:0016
#0551a:14
#05514:0014
#03712:0016
#03718:26
#0371f:21
#03818:16
#03810:41
#05712:16
#05718:0016
#0491a:14
#05012:14
#05118:14
#05110:41
#05214:14
#01718:14
#01814:14
#0191a:14
#02012:14
#0211a:14
#02614:14
#02718:14
#02812:14
#0251a:14
#02510:41
#03912:16
#03918:0016
#04012:16
#04118:16
#04112:0016
#04218:16
#04312:16
#04318:0016
#04412:16
#05812:16
#05818:0016
#06118:0016
#06112:26
#06110:41
#06212:16
#06218:0016
#06312:14
#06318:0014
#06518:16
#06512:0016
#06618:16
#06612:0016
#07013:14
#07019:14
#0291f:11
#01214:24
#06919:24
#06913:24
#0293a0:14
#0303a0:24
#031320:14
#032320:24
#033380:14
#034380:24
#035340:14
#036340:24
#0453a0:14
#046380:24
#047320:14
#048340:24
#056380:1424
#059320:1626
#060380:1626
#064340:1424
#067380:1626
#068320:1626
#071390:14000034000034000000340000002400
#071331:14000034000034000000340000002400
