This file was generated by Ched 2.7.0.0.
#TITLE ""
#ARTIST ""
#DESIGNER ""
#DIFFICULTY 0
#PLAYLEVEL
#SONGID ""
#WAVE ""
#WAVEOFFSET 0
#JACKET ""
#REQUEST "ticks_per_beat 480"
#00002: 4
#BPM01: 134
#00008: 01
#TIL00: ""
#HISPEED 00
#MEASUREHS 00
#0011b:00000013000000000000000000000000
#00116:14000014
#00112:0000000000130013
#00115:0000001300000000
#00318:13000013000000000000000013000000
#0031b:0000000000000013
#00316:0000000000130000
#00315:00000000000000000000000000130000
#00312:00000000000013000000000000000013
#00418:1300001300000000
#00415:00130000001300000000000000000000
#0041b:00000013000000000000230000000000
#00412:00000013000000000000230000000000
#00512:00000013000000000000000000000000
#00518:0000000000130013
#00515:0000001300001300
#0051b:1300001300000000
#00510:41
#00818:1300001300000000
#00815:00130000001300000000000000000000
#0081b:00000013000000000000230000000000
#00812:00000013000000000000230000000000
#00715:00000013000013000000000000000000
#00712:0000000000000013
#00718:1300001300130000
#01016:00000000000000000000001300000000
#01012:00000013000013000000000000001300
#0101b:1300001300131300
#01017:0000000000000013
#01214:1300002300000000
#01219:1300002300000000
#01212:00000013000000000000001300000000
#0121b:00000013000000000000130000000000
#01218:00000013
#01216:0000000000000014
#01712:13000000000000000000001300000000
#0171b:1300000000000013
#01716:0013
#01715:0000000000000013
#01818:1313000013000000
#01812:0013000013000000
#01815:00000000130013000000001300001300
#0181b:00000000000013000000001300000000
#01915:0013001300000000
#01918:00130000
#01916:0000000000000013
#0191b:0013000000000000
#01912:0000000000130000
#01914:00000013
#0201b:13
#02019:0013000000000000
#02017:00000000130000130000000000000000
#02012:0000131300230000
#02014:00000023
#02016:0000000000000023
#02915:00000013000000000000130000001300
#02912:1300001300000000
#02918:00000013
#0291f:11
#03112:00000013
#03115:0000000000000013
#0311b:1300001300000000
#03118:00000013000000000000130000000000
#03218:1300130000000013
#0321b:0013000000130000
#03215:0000001300000000
#03212:0000000000000013
#03312:00000013000013000000000000001300
#0331b:1300000000130000
#03315:13
#0341b:13000000000000000000003333333333
#03413:0013000000000000
#03419:00130000
#03515:13
#03512:0013000000000000
#03517:00000013000000000000000000000000
#0351b:00000000001300000000130000000000
#03519:0000000000001313
#03514:0000000000001313
#03516:0000001300000000
#03612:23000023000000000000130000000000
#03615:00000013
#03618:0000000000000013
#0361b:2300002300000000
#03617:00000023000000000000000000000000
#03616:0000002300000000
#03712:13000013000013000000000013000000
#0371b:1300001300130000
#03718:0000000000000013
#0371f:21
#0381b:00000013000013000000000000001300
#03812:1300000000130000
#03816:0000000000000013
#03810:41
#04015:00000000000000001300000000130000
#04018:00000000000000000013001300000000
#04012:00000000000000000000001300000000
#0401a:00000033000000000000000000000000
#04013:00000033000000000000000000000000
#04312:13
#04316:0000001300000000
#04315:00000013
#04318:0000000000130013
#04314:00000013000000000000000000000000
#04319:00000033000000000000000000000000
#0441b:23000000000013000000000000000013
#04412:23000000000000000000130000000013
#04418:00000013
#04415:00000000000000000000000000130000
#04416:0014
#0461a:00000013000000000000000000000000
#04619:0000001300000000
#04618:0000000000130000
#0461b:1300000000000013
#0481b:13
#04812:00130000000000000000240000000000
#04819:00000013000000000000000000000000
#04815:00000000001300000000000000000000
#04818:0000001300000000
#0481a:0000000000240000
#04918:0000000000000013
#05212:1300000000130000
#05212:0000000000230000
#0521b:00130000000000000000130000000000
#0521b:0000000000230000
#05214:00000013000000000000000000000000
#05218:00000000001300000000000000000000
#05215:0000001300000000
#0531b:1300000000130000
#05318:00000013000000000000000000001300
#05312:1300001300000000
#05315:00000013
#0541b:1300001300000013
#05412:1300000000130000
#05415:00000013000000000000000000000000
#05416:0000000000000013
#05512:13000000000000000000001300000000
#05516:00000013000000001300000000001300
#05517:13000000000013000000001300000000
#0551b:00000013000000001300000000000000
#05612:13000000000000001300000000230000
#0561b:13000013000000000013000000230000
#05615:00000000000000000000001600000000
#05712:0000000000000013
#0571b:1300000000130013
#05716:1300001300000000
#05717:00000013000000000000000000000000
#05919:00000013000000000000000000000000
#05915:0000000000130000
#0591b:00000013
#05912:0000000000000013
#05917:13
#06014:13
#06019:1300000024000024
#0601b:00000013000000000000000000000000
#06015:00000013000000000000000000000000
#06012:00000000000013000000002400000000
#06018:0000001300000000
#06013:0000000024000024
#0601a:00000000000000000000002400000000
#06118:0013001300001300
#06112:13000000001300000000130000000000
#06115:00000013000000000000000000001300
#0611b:13
#06110:41
#06412:13000000000000000013000000230000
#06418:00000013001300000000000000000000
#06415:00001300000013000000001600000000
#0641b:13000000000000001300000000230000
#06718:1300001300000000
#06715:13000013000000000000000016000000
#06712:0000000000130000
#0671b:0000000000000013
#0681b:2300001300000000
#06814:00000023000013001300000000001300
#06819:00000023000000001300001300001300
#06812:23000000000000000000001300000000
#06915:00000000000000001300000000000013
#06918:00000000000013000000130000000013
#06912:00000024000000000000000014000000
#0691a:00000024000000000000000000140000
#06913:24
#06919:24
#01115:1313
#01118:1313
#01112:00000013000000000000001300001300
#0111b:00000013000000000000000000001300
#03018:1300001300000013
#0301b:00000013000000000000130000000000
#00212:00000013000000000000000000000000
#00216:14000014
#0021b:0000000000130013
#00218:0000001300000000
#0061b:00000013000000000000000000000000
#00615:0000000000131300
#00618:00000000000013000000001300001300
#00612:1300001300000013
#0091b:00000013000013000000000000000000
#00912:1300001300130000
#00918:00000013
#00915:0000000000000013
#02115:0000000013000013
#02112:13000000000013000000001300000000
#0211b:1313
#02118:00130000
#02218:1300001300000000
#02215:0013000013000000
#0221b:0000130000130000
#02212:00130000
#02217:0000000000000013
#02216:00000000000000000000001300000000
#0231b:13
#02312:1300000000000013
#02318:00130000
#02315:0000001300000000
#02316:00000000000000000000001300000000
#02416:14140000
#0241b:0013000000000000
#02412:0000001300130000
#02415:00000013
#02418:00000000000000130000000000001300
#02512:1300000000000013
#0251b:13000000000000000000001300000000
#02517:0013
#02518:0000000000000013
#02510:41
#01318:0000000013000013
#0131b:13000000000013000000001300000000
#01312:1313
#01315:00130000
#01415:1300001300000000
#01418:0013000013000000
#01412:0000130000130000
#0141b:00130000
#01416:0000000000000013
#01417:00000000000000000000001300000000
#01512:13
#0151b:1300000000000013
#01515:00130000
#01518:0000001300000000
#01517:00000000000000000000001300000000
#01510:41
#01616:14140000
#01612:0013000000000000
#0161b:0000001300130000
#01618:00000013
#01615:00000000000000130000000000001300
#02615:1313000013000000
#0261b:0013000013000000
#02618:00000000130013000000001300001300
#02612:00000000000013000000001300000000
#02818:0013000000000000
#02812:13000013000000000000000000000000
#0281b:00000013
#02815:0000000000000013
#02718:0013001300000000
#02715:00130000
#02717:0000000000000013
#02712:0013000000000000
#0271b:0000000000130000
#02719:00000013
#03917:13
#03919:00000013000000000000000000000000
#0391b:00000000000013000000003300000000
#03916:0013
#03914:00000000000000000000001300000000
#03912:00000033000000000000000000001300
#0411b:00000013000013000000000013000000
#04112:1300001300130000
#04115:0000000000000013
#04212:00000013000000001300000000000000
#0421b:1300001300130013
#04216:00000000000013000000001300001300
#04518:0000000000000000000000130000000000000000000000000000000000000000
#04515:0000000000000000000000130000000000000000000000000000000000000000
#04713:00000013000000000000000000000000
#04714:0000001300000000
#04715:0000000000130000
#04712:1300000000000013
#05015:0000000000000013
#05115:0000000000130013
#05118:00000013
#05110:41
#05812:1300000013000013
#05817:1300001300000000
#05816:00000013000000000000000000000000
#0581b:0000000013000013
#05815:0000000000130000
#05818:00000000000000000000001300000000
#06215:0013001300001300
#0621b:13000000001300000000130000000000
#06218:00000013000000000000000000001300
#06212:13
#06317:13000000000000000000001300000000
#0631b:00000013000000001300000000001300
#06312:13000000000013000000001300000000
#06316:00000013000000001300000000000000
#06516:0013000000000000
#0651b:13000013000000000000130000000000
#06512:1300001300000000
#06518:00000000001300000000000013000000
#06515:0000000000000013
#06617:0013000000000000
#06612:13000013000000001300000000001300
#0661b:1300001313000013
#06615:00000000001300000000001300000000
#06618:0000000000130000
#07112:13
#07118:13
#0711b:00000013000000000000000000000000
#07115:00000013000000000000000000000000
#07119:0000000000000024
#07113:0000000000000024
#00452:0000000000130000
#0045b:0000000000130000
#00852:0000000000130000
#0085b:0000000000130000
#01254:1300001300000000
#0125b:00000013000000000000000000000000
#0365b:1300001300000000
#03652:00000013000000000000000000000000
#04852:0000000000140000
#0485a:0000000000140000
#05252:0000000000130000
#0525b:0000000000130000
#05356:0000000000130000
#0535b:0000000000130000
#05358:00000053000000000000000000000000
#05352:5300005300000000
#05552:23
#05556:00000023000000000000000000000000
#0555b:0023
#05557:00000000000000000000002300000000
#0565b:00000053000000000000000000130000
#05652:53000000000000000000000000130000
#06059:0000000044000044
#06052:00000000000000000000003400000000
#06452:00000000000000000000000000130000
#0645b:00000000000000000000000000130000
#07159:0000000000000014
#07158:5300001300000000
#07152:5300001300000000
#0715b:00000063000000000000000000000000
#07155:00000063000000000000000000000000
#07153:0000000000000014
#06952:00000014000000000000000000000000
#0695a:00000014000000000000000000000000
#06958:00000000000000000000000000000053
#06955:00000000000000000000000000000053
#0055b:53
#00555:0000005300000000
#00652:63
#00658:0000006300000000
#00758:5300000000530000
#00755:0000005300000000
#00952:63
#0095b:0000006300000000
#0105b:53
#01052:0000005300000000
#01155:53
#01158:5353
#0115b:00000053000000000000000000000000
#01152:00000053000000000000000000000000
#01858:0053
#0185b:00000000000000000000005300000000
#02057:00000000000000530000000000000000
#0215b:0063
#02152:53
#02256:00000000000000000000006300000000
#02552:63
#0255b:63
#02458:00000000000000630000000000000000
#0135b:63
#01352:0053
#01457:00000000000000000000005300000000
#02352:53
#0155b:63
#0175b:53
#01752:53
#01655:00000000000000530000000000000000
#02652:00000000000000000000006300000000
#02655:0063
#02852:00000053000000000000000000000000
#03255:0000005300000000
#0335b:5300000000530000
#03352:0000005300000000
#03556:0000006300000000
#0375b:53
#03752:0000005300000000
#03852:53
#0385b:0000005300000000
#04152:63
#0415b:0000006300000000
#0425b:63
#0445b:00000013000000000000000000000053
#04452:00000013000000000000000000000063
#04558:0000000000000000000000230000000000000000000000000000000000000000
#04555:0000000000000000000000230000000000000000000000000000000000000000
#05452:0000000000130000
#0545b:6300006300000000
#05455:00000063000000000000000000000000
#05457:0000000000130000
#0575b:0000000000130000
#05756:5300005300000000
#05757:00000053000000000000000000000000
#05752:0000000000130000
#05857:63
#05856:00000063000000000000000000000000
#06158:0000005300000000
#06152:0000000000130000
#06255:0000006300000000
#0625b:0000000000130000
#06357:23
#0635b:00000023000000000000000000000000
#06356:0023
#06352:00000000000000000000002300000000
#06552:0000006300000000
#06556:0000000000130000
#06758:5300005300000000
#06755:00000053000000000000000000000000
#06859:00000013000000000000000000000000
#06854:00000013000000000000000000000000
#0705b:00000013
#07052:00000013
#001320:13000023000000000000000000000000
#001380:0000001300230000
#0023b0:13000023000000000000000000000000
#002350:0000001300230000
#003350:13
#003320:00000023000000000000000000000000
#003380:0000001300000000
#0033b0:0000000000230000
#0053b0:13
#005380:00000023000000000000000000000000
#005350:0000001300000000
#005320:0000000000230000
#006320:13
#006350:00000023000000000000000000000000
#006380:0000001300000000
#0063b0:0000000000230000
#007380:13
#0073b0:00000023000000000000000000000000
#007350:0000001300000000
#007320:0000000000230000
#007381:0000000000130000
#0073b1:0000000000000023
#009321:13
#009361:00000023000000000000000000000000
#0093b1:0000001300000000
#009371:0000000000230000
#0103b1:13
#010371:00000023000000000000000000000000
#010321:0000001300000000
#010361:0000000000230000
#011351:1300002300000000
#011321:00000033000000000000000000000000
#011380:1300002300000000
#0113b0:00000033000000000000000000000000
#011380:0013
#0113b0:00000000000000000000002300000000
#0133b0:13
#013380:00230000
#013320:0013
#013350:00000000000000000000002300000000
#014370:00000000000000000000001300000000
#0143b0:0000000000000023
#0153b0:13
#015380:00230000
#015320:00000000000000001300002300000000
#016350:00000000000000130000000000000000
#016320:0000000000230000
#0173b0:13
#017380:00230000
#017321:13
#017351:00230000
#0173b1:0013
#017371:00000000000000000000002300000000
#018381:0000000013000023
#0183b1:00000000000000000000003300000000
#019381:00000000000000130000000000000000
#0193b1:0000000000333323
#020371:00000000000000130000000000000000
#0203b1:0000000000000023
#021321:13
#021351:00230000
#0213b1:0013
#021381:00000000000000000000002300000000
#022361:00000000000000000000001300000000
#022321:0000000000000023
#023321:13
#023351:00230000
#0233b1:00000000000000001300002300000000
#024381:00000000000000130000000000000000
#0243b1:0000000000230000
#025321:13
#025351:00230000
#0253b0:13
#025380:00230000
#025320:0013
#025360:00000000000000000000002300000000
#026350:0000000013000023
#026320:00000000000000000000003300000000
#027350:00000000000000130000000000000000
#027320:0000000000333323
#028320:00000013000000000000000000000000
#028360:00000023
#029380:1300003300000000
#0293b0:00000033000000000000230000000000
#030320:1300003300000000
#030350:00000033000000000000230000000000
#031350:1300003300000000
#031320:00000033000000000000230000000000
#032350:0000001300000000
#032320:0000000000230000
#0333b0:13
#033380:0000002300000000
#033321:0000001300000000
#033351:0000000000230000
#0333b0:0000000000130000
#033380:0000000000000023
#034340:0000001300000000
#034350:0000000000230000
#0343b1:00000000000000000000133333333333
#035381:23
#035361:0000001300000000
#035321:0000000000230000
#0373b1:13
#037371:00000023000000000000000000000000
#037321:0000001300000000
#037361:0000000000230000
#038321:13
#038361:00000023000000000000000000000000
#0383b1:0000001300000000
#038371:0000000000230000
#039321:13000033000000000000000000000000
#039361:0000002300000000
#0393b1:00000000000000001300003300000000
#039371:0000000000000023
#040321:13
#040331:00000033000000000000000000000000
#040351:0000002300000000
#0403b0:13
#0403a0:00000033000000000000000000000000
#040380:0000002300000000
#0403b0:00000000000000000000000000130000
#0413b0:23
#041321:13
#041361:00000023000000000000000000000000
#0413b1:0000001300000000
#041371:0000000000230000
#0423b1:13
#042371:00000023000000000000000000000000
#043371:13
#043391:00000033000000000000000000000000
#0433b1:0000002300000000
#0443b1:13000023000000000000000000000000
#044320:13000023000000000000000000000000
#0443b0:00000000000000000000000000000013
#045380:0000000000000000000000530000000000000000000000000000000000000000
#0453b0:00000023
#044321:00000000000000000000000000000013
#045351:0000000000000000000000530000000000000000000000000000000000000000
#045321:00000023
#046351:1300003300000023
#046321:00000033000000000000330000000000
#047381:1300003300000023
#0473b1:00000033000000000000330000000000
#049321:1300003300000023
#049351:00000033000000000000330000000000
#049380:13
#0493b0:00000023000000000000000000000000
#049380:0000001300000000
#0493b0:0000000000230000
#0503b1:1300003300000023
#050381:00000033000000000000330000000000
#050350:13
#050320:00000023000000000000000000000000
#050350:0000001300000000
#050320:0000000000230000
#051321:1300002300000000
#051351:00000033000000000000000000000000
#051380:13
#0513b0:00000023000000000000000000000000
#051380:0000001300000000
#0513b0:0000000000230000
#053320:13
#053350:00000023000000000000000000000000
#053381:00000013000000000000000000000000
#0533b1:0000002300000000
#053320:0000001300000000
#053360:0000000000230000
#0543b0:13
#054380:00000023000000000000000000000000
#054351:00000013000000000000000000000000
#054321:0000002300000000
#0543b0:0000001300000000
#054370:0000000000230000
#055320:1300002300000000
#055360:00000033000000000000000000000000
#0553b0:0000000013000023
#055370:00000000000000000000003300000000
#056320:13
#056350:0000002300000000
#0563b1:00000013000000000000000000000000
#056381:0000002300000000
#057361:13
#057321:00000023000000000000000000000000
#057370:00000013000000000000000000000000
#0573b0:0000002300000000
#057361:0000001300000000
#057321:0000000000230000
#058371:13
#0583b1:00000023000000000000000000000000
#058360:00000013000000000000000000000000
#058320:0000002300000000
#059320:13
#059360:0000002300000000
#0593b1:0000001300000000
#059381:0000000000230000
#061381:0000001300000000
#0613b1:0000000000230000
#062351:0000001300000000
#062321:0000000000230000
#063371:1300002300000000
#0633b1:00000033000000000000000000000000
#063361:0000000013000023
#063321:00000000000000000000003300000000
#065321:0000001300000000
#065361:0000000000230000
#067381:13
#0673b1:00000023000000000000000000000000
#067350:00000013000000000000000000000000
#067320:0000002300000000
#067381:0000001300000000
#0673b1:0000000000230000
#069351:00000000000000000000000000000013
#070321:00000023
#069380:00000000000000000000000000000013
#0703b0:00000023
#071320:1300002300000000
#071350:00000033000000000000000000000000
#071381:1300002300000000
#0713b1:00000033000000000000000000000000
#071391:0000000000140024
#071330:0000000000140024
