This file was generated by Ched 2.7.0.0.
#TITLE ""
#ARTIST ""
#DESIGNER ""
#DIFFICULTY 0
#PLAYLEVEL
#SONGID ""
#WAVE ""
#WAVEOFFSET 0
#JACKET ""
#REQUEST "ticks_per_beat 480"
#00002: 4
#BPM01: 134
#00008: 01
#TIL00: ""
#HISPEED 00
#MEASUREHS 00
#00115:00000013000000000000000000000000
#00112:00000013
#0011b:0000000000000013
#00118:13
#00315:00000013000000000000000013000000
#00312:0000000000000013
#00318:13000000000000000000000000130000
#0031b:00000000000000000000000000000013
#00415:1300001300000000
#00418:00130000001300000000000000000000
#00412:00000013000000000000000000000000
#0041a:0000000000240000
#00518:00000013
#00515:0000001300000013
#0051b:13
#00510:41
#00818:1300001300000000
#00815:00130000001300000000000000000000
#0081b:00000013000000000000000000000000
#00812:0000000000240000
#01214:00000014000000000000000000000000
#01218:1400002400000000
#0171b:0000000000000013
#01712:13
#01818:1300001300000000
#01812:00001300000000000000001300000000
#01815:00131300
#01918:00000000130000130000000000001300
#01915:0000001300001300
#0191b:0013000000000000
#01912:0000000000130000
#0201b:13
#02012:0000001300000000
#02018:00001300000000130000000000000000
#02015:00130000
#02918:00000013000000000000130000001300
#02915:0000001300001300
#02912:13
#0291f:11
#03318:00000013000000000000000000000000
#03312:0000000000000013
#03315:0000001300000000
#0331b:13
#03419:13
#03414:0013000000000000
#0341b:00130000
#03412:0000000000000013
#0351b:13
#03515:00001300001300000000000013000000
#03518:00000013000013000000000000001300
#03612:2400000000130000
#03618:00000013
#03615:0000000000000013
#0361a:00000024000000000000000000000000
#03616:0000002400000000
#03718:0000000000000013
#0371b:13
#03712:0000001300000000
#0371f:21
#04315:00000013
#04318:0000000000130013
#04314:00000033000000000000000000000000
#04319:00000033000000000000000000000000
#0441b:0000001300000000
#04418:00000000000000000000130000130000
#04415:00001313
#04412:24000000000000000000000000000013
#04818:13000013000013000000000000000000
#04815:00130000001300000000000000000000
#04813:0000000000230000
#0481a:0000000000230000
#05318:0000000000000013
#0531b:13
#05312:1300001300000000
#05319:00000013000000000000000000000000
#05314:00000013000000000000000000000000
#0551b:13
#05517:00000013000000000000000000000000
#05512:0013
#05516:00000000000000000000001300000000
#05618:0013
#0561b:13
#05612:00000013000000000000000000000000
#05712:1300000000000013
#0571b:0000001300000000
#05717:13
#05719:00000013000000000000000000000000
#05714:00000013000000000000000000000000
#05918:00000013
#05915:0000000000000013
#0591b:0000000000130000
#05919:00000033000000000000000000000000
#05914:00000033000000000000000000000000
#06012:1300001300000000
#06018:1300001300000000
#0601b:00000013000000000000000000000000
#06015:00000013000000000000000000000000
#06019:0000000024000024
#06013:00000000000000000000002400000000
#06115:00000013000000000000000000001300
#0611b:00000013000000000000000000000000
#06118:0000001300000000
#06112:13
#06110:41
#06412:1313
#0641b:1313
#06415:00000013000000000000000000000000
#06418:0000001300000013
#06718:1300001300000013
#06712:0000001300130000
#06715:00000013
#0681b:2300001300000000
#06815:0013
#06818:00000023000000000000001300000000
#06812:2300000000000013
#06915:00000023000000001300000013000013
#06918:00000000000000000000130000130000
#0691b:2300001300000000
#06912:23
#01118:0013
#01112:00000013000000000000000000001300
#01115:13
#0071b:13
#00715:0000001300000000
#00712:0000000000130000
#01318:0000000013000013
#01312:00000000000000000000001300000000
#0131b:13
#01315:0000001300000000
#01415:13000000000000001300001300000000
#01418:0013000000000000
#01412:00130000
#0141b:0000001300130000
#02818:0013000000000013
#02812:13000013000000000000000000000000
#03215:1300130000000013
#03218:0000001300000000
#03212:0013000000000000
#03917:13
#03919:00000013000000000000000000000000
#0391b:0000001313000000
#03916:0013
#03914:00000000000000000000001300000000
#03912:1300000000000013
#04212:0013
#04218:0000000000130000
#04215:13000000000000000000001300000000
#0421b:0000001300000013
#04216:0000000000000013
#04515:0000000000000000000000130000000000000000000000000000000000000000
#0511b:0000000000000013
#05112:0000000000000013
#05110:41
#05818:1300000000130000
#05815:00000000000000000000001300000000
#05812:0000000013000013
#0581b:00000013000000000000000000000000
#05817:0000000000000013
#06218:00000013000000000000000000001300
#06212:00000013000000000000000000000000
#06215:0000001300000000
#0621b:13
#06315:13
#06312:00000013000000000000000000000000
#06318:0013
#0631b:00000000000000000000001300000000
#0651b:00000013000000000000000000000000
#06512:13
#06515:00000013000013000000000000001300
#06612:00000013000000001300000000001300
#06618:00000013000000000000130000000000
#06615:00000000000013000000001300000000
#0661b:1300001300000000
#07118:13
#0711b:00000013000000000000000000000000
#07113:0000000000000024
#00218:00000013000000000000000000000000
#0021b:00000013
#00212:0000000000000013
#00215:13
#00615:00000013
#00618:0000001300000013
#00612:13
#00918:1300001300001300
#00915:0000000000000013
#00912:1300001300000000
#01015:1300001300001300
#01018:0000000000000013
#0101b:1300001300000000
#01618:13000000000000130000000000001300
#01615:0000001300001300
#0161b:00130000
#01612:0013000000000000
#01515:0000001300000013
#01518:13
#01510:41
#02115:0000000013000013
#0211b:00000000000000000000001300000000
#02112:13
#02118:0000001300000000
#02218:13000000000000001300001300000000
#02215:0013000000000000
#0221b:00130000
#02212:0000001300130000
#02415:13000000000000130000000000001300
#02418:0000001300001300
#02412:00130000
#0241b:0013000000000000
#02318:0000001300000013
#02315:13
#02512:0000000000000013
#0251b:13
#02515:0000001300000000
#02510:41
#02615:1300001300000000
#0261b:00001300000000000000001300000000
#02618:00131300
#02715:00000000130000130000000000001300
#02718:0000001300001300
#02712:0013000000000000
#0271b:0000000000130000
#03018:0000001300000000
#0301b:13
#03015:00000013000000000000000000001300
#03812:1300000000000013
#0381b:0000001300000000
#03810:41
#04017:13
#04019:00000013000000000000000000000000
#0401b:0000001300000000
#04012:13
#04015:0013
#0411b:0000000000000013
#04118:13
#04115:0000001300000000
#05215:13000013000013000000000000000000
#05218:00130000001300000000000000000000
#0521a:0000000000230000
#05213:0000000000230000
#05412:13
#0541b:1300001300000000
#05414:00000013000000000000000000000000
#05419:00000013000000000000000000000000
#05415:0000000000000013
#0311b:13000013
#03115:00000013000000000000130000000000
#03118:0000001300000013
#0045a:0000000000140000
#00852:0000000000140000
#01254:00000014000000000000000000000000
#01258:1400001400000000
#03652:14
#0365a:00000014000000000000000000000000
#03656:0000001400000000
#04853:0000000000130000
#0485a:0000000000130000
#05356:0000000000130000
#05352:0000005300000000
#0555b:23
#05557:00000023000000000000000000000000
#05552:0023
#05556:00000000000000000000002300000000
#06955:00000013000000000000000000000053
#0055b:53
#00555:0000005300000000
#0075b:63
#00755:0000005300000000
#00752:0000000000530000
#01155:53
#01152:00000053000000000000000000000000
#01158:0053
#02058:00000000000000530000000000000000
#0135b:63
#01455:00000000000000000000006300000000
#01752:53
#02852:00000053000000000000000000000000
#03355:0000005300000000
#0375b:53
#03752:0000005300000000
#04452:00000014000000000000000000000063
#04555:0000000000000000000000230000000000000000000000000000000000000000
#05652:00000063000000000000000000000000
#05658:0053
#0575b:0000005300000000
#05758:0000000000130000
#05858:63
#0585b:00000053000000000000000000000000
#06355:23
#06352:00000023000000000000000000000000
#06358:0023
#0635b:00000000000000000000002300000000
#06555:0000006300000000
#06552:0000000000130000
#06758:53
#06858:00000013000000000000000000000000
#07158:5300001300000000
#0715b:00000063000000000000000000000000
#07153:0000000000000014
#00652:63
#00658:0000006300000000
#00958:6300006300000000
#00952:6300006300000000
#01055:5300005300000000
#0105b:5300005300000000
#01658:00000000000000630000000000000000
#01558:63
#01852:00000000000000000000006300000000
#01855:0063
#02152:53
#02258:00000000000000000000005300000000
#02455:00000000000000530000000000000000
#02355:53
#0255b:63
#0265b:00000000000000000000005300000000
#02658:0053
#03058:0000005300000000
#03558:0000005300000000
#03852:63
#0385b:0000006300000000
#04055:0053
#04158:53
#04155:0000005300000000
#04255:63
#0525a:0000000000130000
#05253:0000000000130000
#0545b:0000006300000000
#05457:0000000000130000
#06059:0000000014000014
#06053:00000000000000000000001400000000
#06158:0000005300000000
#0615b:0000000000130000
#06255:0000006300000000
#06252:0000000000130000
#0645b:0053
#06452:0053
#03258:0000006300000000
#07052:00000013
#0013b0:0000001300230000
#002320:0000001300230000
#0033b0:0000001300230000
#0053b0:13
#005380:00000023000000000000000000000000
#005350:0000001300000000
#005320:0000000000230000
#006320:13
#006350:00000023000000000000000000000000
#006380:0000001300000000
#0063b0:0000000000230000
#0073b0:13
#007380:00000023000000000000000000000000
#007350:0000001300000023
#007320:0000000000330000
#009380:13
#0093b0:00000023000000000000000000000000
#009321:13
#009351:00000023000000000000000000000000
#009321:0000001300000000
#009351:0000000000230000
#009380:0000001300000000
#0093b0:0000000000230000
#010350:13
#010320:00000023000000000000000000000000
#0103b1:13
#010381:00000023000000000000000000000000
#0103b1:0000001300000000
#010381:0000000000230000
#010350:0000001300000000
#010320:0000000000230000
#011350:1300002300000000
#011320:00000033000000000000000000000000
#011380:0013
#0113b0:00000000000000000000002300000000
#0133b0:13
#013380:00230000
#014350:00000000000000000000001300000000
#014320:0000000000000023
#015380:13
#0153b0:00230000
#015380:00000000000000001300002300000000
#016380:00000000000000130000000000000000
#0163b0:0000000000230000
#017320:13
#017350:00230000
#017380:00000000000000001300002300000000
#017321:00000000000000001300002300000000
#018351:0000000013000023
#018321:00000000000000000000003300000000
#020381:00000000000000130000000000000000
#0203b1:00000023
#021321:13
#021351:00230000
#022381:00000000000000000000001300000000
#0223b1:0000000000000023
#023351:13
#023321:00230000
#023351:00000000000000001300002300000000
#024351:00000000000000130000000000000000
#024321:0000000000230000
#0253b1:13
#025381:00230000
#025351:00000000000000001300002300000000
#0253b0:00000000000000001300002300000000
#026380:0000000013000023
#0263b0:00000000000000000000003300000000
#028320:00000013000000000000000000000000
#028350:0023
#030380:0000001300000000
#0303b0:00000023
#032380:0000001300000000
#0323b0:0000000000230000
#033350:0000001300000000
#033320:0000000000230000
#034360:0000001300230000
#035380:0000001300000000
#0353b0:0000000000230000
#0373b0:13
#037380:00000023000000000000000000000000
#037320:0000001300000000
#037350:0000000000230000
#038320:13
#038350:00000023000000000000000000000000
#0383b0:0000001300000000
#038380:0000000000230000
#040350:0013
#040320:00000023
#041380:13
#0413b0:00000023000000000000000000000000
#041350:0000001300000000
#041320:0000000000230000
#042350:13
#042320:00000023000000000000000000000000
#043320:13
#043340:00000033000000000000000000000000
#043360:0000002300000000
#043371:13
#043391:00000033000000000000000000000000
#0433b1:0000002300000000
#044321:14000024000000000000000000000000
#044321:00000000000000000000000000000013
#045351:0000000000000000000000530000000000000000000000000000000000000000
#045321:00000023
#0463b1:1300003300000023
#046381:00000033000000000000330000000000
#047321:1300003300000023
#047351:00000033000000000000330000000000
#049381:1300003300000023
#0493b1:00000033000000000000330000000000
#050351:1300003300000023
#050321:00000033000000000000330000000000
#051381:13
#0513b1:00000023000000000000000000000000
#051351:0000001300000000
#051321:0000000000230000
#053321:0000001300000000
#053361:0000000000230000
#0543b1:0000001300000000
#054371:0000000000230000
#0553b1:1300002300000000
#055371:00000033000000000000000000000000
#055321:0000000013000023
#055361:00000000000000000000003300000000
#056321:00000013000000000000000000000000
#056351:0000002300000000
#056381:0013
#0563b1:00000023
#0573b1:0000001300000000
#057381:0000000000230000
#058381:1300002300000000
#0583b1:00000033000000000000000000000000
#0593b1:13
#059391:00000033000000000000000000000000
#059371:0000002300000000
#059360:13
#059340:00000033000000000000000000000000
#059320:0000002300000000
#061380:0000001300000000
#0613b0:0000000000230000
#062350:0000001300000000
#062320:0000000000230000
#063350:1300002300000000
#063320:00000033000000000000000000000000
#063380:0000000013000023
#0633b0:00000000000000000000003300000000
#064320:0013
#064350:00000023
#0643b1:0013
#064381:00000023
#065351:0000001300000000
#065321:0000000000230000
#067381:13
#0673b1:00000023000000000000000000000000
#069351:00000000000000000000000000000013
#070321:00000023
#071381:1300002300000000
#0713b1:00000033000000000000000000000000
#071331:0000000000140024
