This file was generated by Ched 2.7.0.0.
#TITLE ""
#ARTIST ""
#DESIGNER ""
#DIFFICULTY 0
#PLAYLEVEL
#SONGID ""
#WAVE ""
#WAVEOFFSET 0
#JACKET ""
#REQUEST "ticks_per_beat 480"
#00002: 4
#BPM01: 134
#00008: 01
#TIL00: ""
#HISPEED 00
#MEASUREHS 00
#0011b:0000000000000013
#00112:0000000000130000
#00119:00000013
#00114:00000013
#00116:0000000000000013
#01218:0000000000161600
#01214:00000000000000000000001600000000
#01212:2400002400000016
#01216:24002424002424000000000000000000
#0121a:00000024000000000000000000000000
#0181b:13000000000000000000001300000000
#01819:00130000
#01817:00000000000000001300000000130000
#01814:00000013000014000000000000000000
#01812:00000000000000130000000000001300
#01816:0014000000130000
#01818:00000000000000000000000000000013
#01915:13000000130000130000000000001300
#01912:0013001300131300
#0191b:1300000000000000000013000000000000000000331300003300000000000000
#01918:00001300000000130000000000000000
#02018:13000000001300000000000000000000
#0201b:00130000
#02015:0013001300002300
#02012:0000130000230023
#03016:00000000000000000000000000130000
#0301b:00000013
#03019:0000000000000013
#03012:13001313000000000000130000000000
#03015:00000000001313000000000000000000
#03014:00000000000000000000000000000013
#03112:1300001300001300
#03115:00000013000000000000000000001300
#03118:00000000000000000000000000000013
#0311b:00000013000000000000130000000000
#03117:1300001300001300
#03119:00001300001300000000000000000000
#03318:00001313000000000000000000001300
#03312:1300000000130000
#0331b:0000001300001300
#03315:00000013000000000000000000000013
#03316:00000013
#03515:00001300000000000000000000130013
#03518:00000013000000000000000013001300
#03512:00000000001300000000130000000000
#03516:0013
#03517:0000001300000000
#0351b:1313
#03612:2424000013001313
#03617:00000000000000000000000000130000
#0361a:2400000000000000000024000000000014343434003434340000000000000000
#03616:0000000000140000
#03618:0024000000000000
#03614:00000000002400000000000000000000
#03712:00000013000000000000000013000000
#03717:0000001300000000
#0371b:0000000000130000
#03715:0000000000000013
#03718:00000013
#03716:13140000
#0371f:21
#04415:2300001300001300
#0441b:00000000000000001300000000000013
#04418:23000000000000130000160000130000
#04412:0000000016130000
#0481a:0013000000000000
#04815:00000000001300000000000000001300
#04818:0000001300000013
#04812:0000000000130000
#04812:0000000000230000
#0481b:1300000000130000
#0481b:0000000000230000
#04814:00000013000000000000000000000000
#04819:00130000
#04813:00130000000000000000000000000000
#06918:26000026000013001600000013000013
#06915:00000000000000130000000000130013
#06912:26000026000000001300160000000000
#0691b:0000000000130000
#07012:0000000000000000000000001300000000331333333333330000000000000000
#0701b:00000000000000130000000000000000
#00318:00000012
#00314:00000000000000000000000000000012
#0031a:0000000000000012
#00316:00000000000000000000000000120000
#00312:1300000000130000
#0041c:12
#00412:00120013000000000000230000000000
#0041b:0000000000001300000000000000000000000000230000000033333333333333
#00418:00000000001300000000000000000000
#00415:0000001300000000
#00416:00000013
#0051b:0000000000130013
#00518:0013000000001300
#00515:00000000001300000000000000000000
#00510:41
#0071b:0000000000000013
#00712:1300000000130000
#00715:0013000000000000
#00718:00000000001313000000000000000000
#00812:1300000000230000
#00817:00130000000000000000000000000000
#00819:00000013000000000000000000000000
#0081b:00000000001313000000000013000000
#00814:0013000000000000
#00816:00130000
#00815:0000001300001300
#00818:0000000000230000
#00612:1300000000131300
#00616:00000000000000000000001500000000
#0061b:0000000000000013
#00615:0013000000000000
#00618:00000000001300000000000000000000
#0131b:0000000013000013
#01317:0000001300000000
#01312:12000000000000000000001300000000
#01318:1200000000130000
#01315:00000000000000000013000000000013
#0131c:0012000000000000
#01316:0012000000000000
#01415:00130000
#01419:0013
#0141b:0000001300000013
#01412:0013000000000000
#01418:13000013000000000000000000000000
#01416:00000000000000130000000000000000
#01414:00000000000000000013000000000000
#01417:0000000000130000
#02112:1200001300140013
#02118:00001200000000000000000000000013
#02116:0012001414000000
#0211c:12
#0211b:00000000000000001300001313000000
#0381b:00000013000000000000000000001300
#03818:00000013
#03815:00000000000000000000000000130000
#03816:0000141300000000
#03812:00000000000000000013130000000000
#03817:13
#03810:41
#03918:00000013000000000000000000000000
#03916:1414
#03912:00000014000000001300000000001300
#0391b:1300001300000000
#03915:00000000000000000000001300000000
#0391a:00000000000000000000001400000000
#04012:0000001200000000001200000000000013000000000013000000000000000000
#04017:00000000000000000013000000000000
#04018:0000001200000000001200000000000000000000000000000000130000000000
#04015:0000000000000013
#0401b:00000000000000000000001300000013
#04016:12000012000000000000000000000000
#0401c:12000012000000000000000000000000
#04214:0014
#04218:00000000000000000014001500000000
#04213:0000000000150000
#04212:00001313000013000000000016001300
#0421b:0000001300000013
#04216:13140000
#04319:00000013
#04312:0016000000130000
#04314:0000000000000013
#04315:13
#04318:00000000001600000000000000000000
#0451b:00001313000000001300000000000000
#0451a:0000000000140014
#04515:00000000001613000000000000000000
#04512:0000000013130000
#04516:00000013
#01718:1200000000000014
#01716:00001200000014000000000000000013
#01712:12000000000000001300131300000000
#0171c:0012000000000000
#0171b:0013
#01512:0012000013000013
#01518:00001200000000000013000000001300
#01516:1200001300000000
#0151b:00000000000000000000001300000000
#01515:0000000000130000
#0151c:12
#01510:41
#01612:00001300000013130000000013000000
#01616:0000000000130000
#01615:13130000
#0161b:1300130000130013
#01618:0013000000000000
#01617:00000013
#00012:0000000000130000
#0001b:0000000000130000
#00212:0000000000000013
#0021b:1300000000130000
#00214:00000013
#00219:00000013
#00217:0000000000000013
#00912:1300000000130013
#00915:0013000000001300
#00918:00000000001300000000000000000000
#0101b:1300000000131300
#01015:00000000001300000000001500000000
#01012:0000000000000013
#01018:0013000000000000
#0111b:13000000000000000000001300000000
#01116:1300001300000000
#01112:00001300000000001313000000131300
#01117:00001313000000001300000000000000
#02218:00130000
#02214:0013
#02212:0000001300000013
#0221b:0013000000000000
#02215:13000013000000000000000000000000
#02217:00000000000000130000000000000000
#02219:00000000000000000013000000000000
#02216:0000000000130000
#0231c:0012000000000000
#02318:12
#02316:1200001414000000
#02312:00001200000000001300001313000000
#0231a:0000000000140000
#0231b:0000001300000013
#02315:0000000000000013
#0241b:00001300000013130000000013000000
#02417:0000000000130000
#02418:13130000
#02412:1300130000130013
#02415:0013000000000000
#02416:00000013
#0251c:12
#02516:0012001414000000
#02518:0012000000000000
#02512:1200001300140000
#0251b:00000000000000001300001313000000
#02514:0000000000000014
#02517:00000000000000000000000000000013
#02510:41
#02612:13000000000000000000001300000000
#02614:00130000
#02616:00001400000000001300000000130000
#02618:0000001400000000
#02619:00000013000000000000000000000000
#0261b:00000000000000130000000000001300
#02617:0000000000130000
#02615:00000000000000000000000000000013
#02718:13000000130000130000000000001300
#0271b:0013001300131300
#02712:1300000000000000000013000000000000000000331300003300000000000000
#02715:00001300000000130000000000000000
#02812:1313000000000000
#0281b:1313000000000000
#02815:0000000000000013
#02818:00000000000000000000000000000013
#0291b:13001313000000000000130000000000
#02918:00000000001313000000000013001300
#02915:00000000000000000000000000000013
#02912:00000013
#0291f:11
#03212:00000013000000000000130000000000
#03216:1300001300000013
#03214:00001300001300000000000013000000
#0321b:13000000000013000000000000000013
#03218:00000013000000000000000000000000
#03217:00000000000000000000001300000000
#03219:00000000000000000000000000130000
#03415:00001313000000000000000000000000
#0341b:1300000000130000
#03419:00000013
#03414:00000000000000000000000000130000
#03417:0000000000000013
#03418:00000013000000000000000000000000
#03412:13000000000013000000000000000013
#03416:00000000000000000000001300000000
#0411b:00000013000000000000000013000000
#04116:0000141300000000
#04112:0000000000130000
#04118:0000000000000013
#04115:00000013
#04117:13
#04612:00001313000000001300140000001400
#0461b:0000000013130000
#04617:00000013
#04615:13000000001600000000000000000000
#04618:0000001300000000
#0471b:00001313000000001300000000000000
#0471a:0000000000140014
#04715:00000000001613000000000000000000
#04712:0000000013130000
#04716:00000013
#04718:13
#0491b:0013000013000000
#0491a:0000000000140014
#04915:00001300001613000000000000000000
#04912:13001313
#04918:13000013000000000000000000000000
#04916:0000000000130000
#05012:0013000013140014
#05015:13000013001600000000000000000000
#0501b:13001313
#05018:0013001300000000
#05017:0000000000130000
#0511a:0000000000140014
#05116:0000000000130000
#05112:0013000013001300
#05118:0013000000000000
#05115:13000000001613000000000000000000
#0511b:13000013000000001300000000000000
#05110:41
#05213:0013000000000000
#05218:00000000001300000000000000000000
#05215:0000001300000000
#05219:00000013000000000000000000000000
#05214:00130000
#0521a:00130000000000000000000000000000
#05212:1300000000230000
#0521b:0000000000231300
#05216:0000000000000000000000000000000000000000000000000033333333333333
#05312:00000013130013000000000013000000
#05317:0000001300000000
#0531b:1300000000130000
#05315:0000000000000013
#05318:0000001300000000000000000000000000000000000000001300000000000000
#05316:00140000
#0541b:00000013130013000000000013001300
#05416:00000000140013000000000000130000
#05417:13
#05415:0000001300000000000000000000000000000000000000000000000000000000
#05412:13000000000000000013130000000000
#05517:13
#05512:00000013000000001400001400001400
#0551a:14000014000014000000000000000000
#05516:0013
#0551b:00000000000000000000001300000000
#05612:0000001200000000001200000000000013000000000000000000000000000000
#05616:12000012000000000014001200000000
#05615:0000000000000013
#0561b:00000000000000000000001300000013
#0561c:12000012000000000000000000000000
#05618:0000001200000000001200000000000012000000000000000000230000000000
#0571b:00000013130013000000000013000000
#05716:0000141300000000
#05712:1300000000130000
#05718:0000000000000013
#05715:0000001300000000000000000000000000000000000000001300000000000000
#05717:13
#05812:00000013130000000000001300001300
#05816:1300141414141400
#05818:0000001300000000000000000000000000000000000000000000000000000000
#0581b:13000000000000000013000000001300
#0591b:0000000000130000
#05918:1316000000000000
#05912:00000000001600000000000000001300
#05919:00000013
#05914:00000013
#05917:0000000000000013
#06012:13000013000013000000002400000000
#0601b:13000013000013000000000000000000
#06015:00001600001600000000000000000000
#06018:0000000024000024
#06014:0000000024000024
#0601a:00000000000000000000002400000000
#06116:00000018140013000000000000000000
#06112:1300000000130000
#06115:0000001300000000000000000000000000000000000000001300000016000000
#0611b:1300131300001300
#06110:41
#06216:0000140000000013
#06212:13000018130013000000000013000000
#0621b:13000000000000000013130000130000
#06218:0000001300000000000000000000000000000000000000000000000000000000
#06217:0000001300000000
#0631b:13
#06316:14000013000014001400000000001400
#06312:00000014000000001300000000000000
#06317:00000000000000000000001300000000
#0631a:00000000000000000000001400000000
#0641b:0013
#06416:0000001200000000001200000000000012001400000000000000000000000000
#06418:0000001200000000001200000000000000000000000012000000000013000000
#06412:12000012000000000000001300000013
#0641c:12000012000000000000000000000000
#06415:00000000000000000000000000230000
#06512:13000018130013000000000013000000
#06517:0000001300000000
#0651b:1300000000130000
#06515:0000000000000016
#06518:0000001300000000000000000000000000000000000000001300000000000000
#06516:00140000
#06616:00000018140014001400140014000000
#0661b:13000000130000000000001300001300
#06615:0000001300000000000000000000000000000000000000000000000000000000
#06612:13000000000000000013000000001300
#06712:0016001600130000
#06715:13
#06718:00000016001600000000000000000000
#06714:00000013
#06719:00000013
#0671b:0000000000000013
#06716:0000000000000013
#06815:00000000000016001600001600001600
#0681b:00000000000013000000001300000000
#06812:26000026000000001300000000001300
#06818:26000026000000000000000000000000
#07112:13000013001c0000
#07115:00001600001600001600000000000000
#0711b:00000013000000000000000000000000
#07116:0000000000000024
#04852:0000000000130000
#0485b:0000000000130000
#04855:00000000005300000000000000000000
#04858:0000005300000000
#06054:0000000034000034
#0605a:00000000000000000000004400000000
#06058:0000000044000044
#06052:00000000000000000000003400000000
#06955:00000000000000000000000000000023
#06958:46000046000000001600000000000023
#06952:36000036000000000000160000000000
#00452:0000000000130000
#0045b:0000000000130000
#00458:00000000005300000000000000000000
#00455:0000005300000000
#00852:0000000000130000
#00858:0000000000130000
#0085b:0000005300000000
#00855:0000005300000000
#0195b:0000000000000000000000000000000000000000002300000000000000000000
#01958:00000000000000530000000000000000
#02152:2200000000240000
#02158:0022000000000000
#02156:0022000054000000
#0215c:22
#03956:2424
#03952:00000024000000000000000000000000
#0395a:00000000000000000000002400000000
#01558:0022000000000053
#0155c:62
#01556:62
#01552:0022000000000000
#01652:00000000000000530000000023000000
#01656:0000000000230000
#0165b:53530000
#01658:0053000000000000
#0355b:0023
#03557:0000006300000000
#0365a:4400004464000000
#03656:0000000000240000
#03652:00000034000000000000000000000000
#03658:0044000000000000
#03654:00000000003400000000000000000000
#03757:0000001300000000
#04452:0016
#04458:0000000000160000
#04459:00000033000000000000000000000000
#04454:00000043000000000000000000000000
#0455a:0000000000140014
#04552:0000000000530000
#04556:00000053
#0015b:0000000000000013
#04252:0000000000000013
#0425b:0000000000000013
#0055b:0000000000000013
#0065b:0000000000000013
#00652:00000053
#00052:0000000000530000
#00252:0000000000000013
#00758:0000005300000000
#00752:0000000000530000
#00952:0000000000000013
#01052:0000000000000013
#0105b:00000063
#01152:00000000000000000053000000000000
#0115b:00000000000000000000005300000000
#01157:00000053000000000000000000000000
#01252:3400003400000036
#01256:44000034000044000000000000000000
#0125a:00000044000000000000000000000000
#01258:0000000000464600
#01254:00000000000000000000003600000000
#01352:52
#01358:52
#0135c:0022000000000000
#01356:0022000000000000
#01752:52
#01758:52
#0175c:0022000000000000
#01756:0022000000000000
#0175b:0053
#0235c:0022000000000000
#02358:22
#02356:2264
#0235a:0000000000240000
#02355:0000000000000063
#02352:0022000000000000
#0245b:00000000000000630000000023000000
#02457:0000000000230000
#02452:63630000
#02455:0063000000000000
#0255c:22
#02556:0022000054000000
#02558:0022000000000000
#02552:2200000000240000
#03152:2300002300000000
#03155:00000023000000000000000000000000
#0325b:2300002300000000
#03258:00000023000000000000000000000000
#03352:53
#03355:00000053000000000000000000000000
#0335b:0000005300000000
#03458:00000063000000000000000000000000
#0345b:63
#03452:0000006300000000
#03856:0000001300000000
#04056:52000052000000000000000000000000
#04052:0000002200000000002200000000000000000000000000000000000000000000
#04058:0000002200000000002200000000000000000000000000000000000000000000
#0405c:52000052000000000000000000000000
#04156:0000001300000000
#04652:0000000000140014
#0465b:0000000000630000
#04657:00000063
#0475a:0000000000140014
#04752:0000000000530000
#04756:00000053
#0495a:0000000000140014
#04952:53000063
#04955:0023000000000000
#04956:0000000000630000
#05052:0000000000140014
#0505b:63000053
#05058:0023000000000000
#05057:0000000000530000
#0515a:0000000000140014
#05156:0000000000630000
#05152:0023000000006300
#05155:53
#05258:00000000006300000000000000000000
#05255:0000006300000000
#0525b:0000000000130000
#05252:0000000000130000
#05357:0000001300000000
#0535b:53
#05358:0000002300000000000000000000000000000000000000000000000000000000
#05352:0000005300000000
#05356:0000000000130000
#05455:0000002300000000000000000000000000000000000000000000000000000000
#05452:63
#05456:0000001300000000
#0545b:0000006300000000
#05457:0000000000130000
#05557:23
#05552:00000023000000000000000000000000
#05556:0023
#0555b:00000000000000000000002300000000
#05656:22000022000000000000000000000000
#05652:0000005200000000005200000000000000000000000000000000000000000000
#0565c:22000022000000000000000000000000
#05658:0000005200000000005200000000000000000000000000000000130000000000
#05756:0000001300000000
#05755:0000002300000000000000000000000000000000000000000000000000000000
#05752:63
#0575b:0000006300000000
#05757:0000000000130000
#05858:0000002300000000000000000000000000000000000000000000000000000000
#0585b:53
#06156:0000001300000000
#06155:0000002300000000000000000000000000000000000000000000000000000000
#06152:63
#0615b:0000006300000000
#06157:0000000000130000
#06258:0000002300000000000000000000000000000000000000000000000000000000
#0625b:53
#06257:0000001300000000
#06252:0000005300000000
#06256:0000000000130000
#0635b:23
#06356:00000023000000000000000000000000
#06352:0023
#06357:00000000000000000000002300000000
#06452:22000022000000000000000000000000
#06456:0000006200000000006200000000000000000000000000000000000000000000
#0645c:52000052000000000000000000000000
#06458:0000002200000000002200000000000000000000000000000000000000000000
#06455:00000000000000000000000000130000
#06557:0000001300000000
#06558:0000002300000000000000000000000000000000000000000000000000000000
#0655b:53
#06552:0000005300000000
#06556:0000000000130000
#06655:0000002300000000000000000000000000000000000000000000000000000000
#06652:63
#06852:36000036000000000000000000000000
#06858:46000046000000000000000000000000
#06855:00000000000036004600003600004600
#07058:00000046
#07052:00000000000000000023000000000000
#07156:0000000000000014
#07152:00000000006c0000
#02752:0000000000000000000000000000000000000000002300000000000000000000
#02755:00000000000000630000000000000000
#000320:0000000000130000
#001350:23
#001381:13
#0013b1:00000023000000000000000000000000
#001320:00000013000000000000000000000000
#001360:0000002300000000
#0013b1:0000001300230000
#002351:13
#002321:00000023000000000000000000000000
#0023b0:00000013000000000000000000000000
#002370:0000002300000000
#002321:0000001300230000
#003381:13
#0033b1:00000023000000000000000000000000
#003320:00000013000000000000000000000000
#003360:0000002300000000
#0033b1:0000001300230000
#004381:00000000001300000000000000000000
#0043b1:0000000000230000
#004350:0000001300000000
#004320:0000000000230000
#0043b0:0000000000000000000000000000000000000000000000001333333333333333
#005370:23
#005321:13000023000000000000000000000000
#005380:00000013000023000000000000000000
#005351:0000001300330023
#005321:00000033
#0063b1:13000023000000000000000000000000
#006350:00000013000023000000000000000000
#006381:0000001300230000
#006321:00000013
#006351:0000000000000023
#0073b1:13000023000000000000000000000000
#007350:00000013000023000000000000000000
#007381:0000001300000000
#0073b1:0000000000230000
#007320:0000000000130000
#007360:0000000000000023
#008350:0000001300000000
#008320:0000000000230000
#0083b1:0000001300000000
#008381:0000000000230000
#0093b1:13000023000000000000000000000000
#009350:00000013000023000000000000000000
#009381:0000001300330023
#0093b1:00000033
#010321:13000023000000000000000000000000
#010380:00000013000023000000000000000000
#010351:0000001300230000
#0103b1:00000013
#010381:0000000000000023
#011371:00000013000000000000000000000000
#0113b1:0000002300000000
#011321:00000000000000000013000000000000
#011361:00000000000000000000002300000000
#0113b0:00000000000000000000001300000000
#011370:0000000000000023
#013320:12220000
#013360:0052000000000000
#013381:12220000
#0133c1:0052000000000000
#013321:0000001300000000
#013361:0023
#014321:00000000000000000000001300000000
#014361:0000000000000023
#0153c1:12220000
#015381:0052000000000000
#015360:12220000
#015320:0052000000000000
#0153b0:0000001300000000
#015370:0023
#015380:0000000000000013
#0163b0:33330000
#016380:0033002300000000
#016320:00000000000000130000000033000000
#016360:0000000000330023
#017320:12220000
#017360:0052000000000000
#017381:12220000
#0173c1:0052000000000000
#0173b1:0013
#017371:00000000000000000000002300000000
#019381:00000000000000130000000000002300
#0193b1:0000000000000000000000000000000000000000335300003300000000000000
#020381:00000000000000130000000033000000
#0203b1:0000000000330023
#0213c1:12220000
#021381:0052000000000000
#021320:12220000
#021360:0052000000000000
#021360:00001424
#021320:0000000000540000
#0223b0:00000000000000000000001300000000
#022370:0000000000000023
#023380:12220000
#0233c0:0052000000000000
#023361:12220000
#023321:0052000000000000
#023361:00001424
#0233a1:0000000000540000
#023351:0000000000000013
#024321:33330000
#024351:0033002300000000
#0243b1:00000000000000130000000033000000
#024371:0000000000330023
#025321:12220000
#025361:0052000000000000
#0253c0:12220000
#025380:0052000000000000
#025360:00001424
#025320:0000000000540000
#027350:00000000000000130000000000002300
#027320:0000000000000000000000000000000000000000335300003300000000000000
#0283b0:00000013000000000000000000000000
#028320:00000023
#028321:00000013000000000000000000000000
#0283b1:00000023
#029321:1300003300000000
#029351:00000033000000000000000000000000
#029361:0000000000230000
#0303b1:1300003300000000
#030381:00000033000000000000000000000000
#030371:0000000000230000
#031321:1300003300000000
#031351:00000033000000000000000000000000
#031361:0000000000230000
#0323b1:1300003300000000
#032381:00000033000000000000000000000000
#032371:0000000000230000
#033321:1300002300000000
#033351:00000033000000000000000000000000
#0333b0:0000001300000000
#033370:0000000000230000
#0343b0:1300002300000000
#034380:00000033000000000000000000000000
#034321:0000001300000000
#034361:0000000000230000
#035371:0000001300230000
#0353b1:0053
#036321:00001424000000000000000000000000
#0363a1:00000000001424000000000000000000
#0363a1:0000000000000000000000000000000014343434003434342400000000000000
#036361:0000000000340000
#0373b1:1353000000000000
#037371:00000023000000000000000000000000
#037321:0000001353000000
#037361:0000000000230000
#038321:1353000000000000
#038361:00000023000000000000000000000000
#0383b1:0000001353000000
#038371:0000000000230000
#039361:1400002400000000
#039321:00000034000000000000000000000000
#039361:0000000014000024
#0393a1:00000000000000000000003400000000
#040361:12000032000022000000000000000000
#040321:0000005200000000005200000000000000000000000000000000000000000000
#0403c0:12000032000022000000000000000000
#040380:0000005200000000005200000000000000000000000000000000000000000000
#041320:1353000000000000
#041360:00000023000000000000000000000000
#0413b0:0000001353000000
#041370:0000000000230000
#0423b0:1353000000000000
#042370:00000023000000000000000000000000
#0433b0:13
#043380:00000023000000000000000000000000
#043351:00000013000000000000000000000000
#043321:0000002300000000
#0433b0:0000001300000000
#043370:0000000000230000
#044350:13
#044320:0053000000000000
#044340:00000023000000000000000000000000
#044381:13
#0443b1:0053000000000000
#044391:00000023000000000000000000000000
#045321:13230000
#045321:0000000000130023
#045361:00000033
#0463b1:13230000
#0463b1:0000000000130023
#046371:00000033
#047351:13230000
#047321:0000000000130023
#047361:00000033
#048351:00000000001300000000000000000000
#048321:0000000000230000
#048380:0000001300000000
#0483b0:0000000000230000
#049320:13230000
#049350:0053000000000000
#049360:0000000000130023
#049320:00000033
#0503b0:13230000
#050380:0053000000000000
#050370:0000000000130023
#0503b0:00000033
#051350:13230000
#051320:0053000000000000
#051360:0000000000130023
#051320:00000033
#052380:00000000001300000000000000000000
#0523b0:0000000000230000
#052351:0000001300000000
#052321:0000000000230000
#052361:0000000000000000000000000000000000000000000000001333333333333333
#053321:23
#0533b0:13000023000000000000000000000000
#053380:0000005300000000000000000000000000000000000000000000000000000000
#053320:0000001300000000
#053360:0000000000230000
#054320:13000023000000000000000000000000
#054350:0000005300000000000000000000000000000000000000000000000000000000
#0543b0:0000001300000000
#054370:0000000000230000
#055370:1300002300000000
#055320:00000033000000000000000000000000
#055360:0000000013000023
#0553b0:00000000000000000000003300000000
#056360:12000032000022000000000000000000
#056320:0000005200000000005200000000000000000000000000000000000000000000
#0563c1:12000032000022000000000000000000
#056381:0000005200000000005200000000000000000000000000000000000000000000
#057321:13000023000000000000000000000000
#057351:0000005300000000000000000000000000000000000000000000000000000000
#0573b1:0000001300000000
#057371:0000000000230000
#0583b1:13000023000000000000000000000000
#058381:0000005300000000000000000000000000000000000000000000000000000000
#059321:13
#059351:00000023000000000000000000000000
#059380:00000013000000000000000000000000
#0593b0:0000002300000000
#059321:0000001300000000
#059361:0000000000230000
#061321:13000023000000000000000000000000
#061351:0000005300000000000000000000000000000000000000000000000000000000
#0613b1:0000001300000000
#061371:0000000000230000
#0623b1:13000023000000000000000000000000
#062381:0000005300000000000000000000000000000000000000000000000000000000
#062321:0000001300000000
#062361:0000000000230000
#0633b1:1300002300000000
#063361:00000033000000000000000000000000
#063321:0000000013000023
#063371:00000000000000000000003300000000
#064321:12000032000022000000000000000000
#064361:0000005200000000005200000000000000000000000000000000000000000000
#0643c0:12000032000022000000000000000000
#064380:0000005200000000005200000000000000000000000000000000000000000000
#0653b0:13000023000000000000000000000000
#065380:0000005300000000000000000000000000000000000000000000000000000000
#065320:0000001300000000
#065360:0000000000230000
#066320:13000023000000000000000000000000
#066350:0000005300000000000000000000000000000000000000000000000000000000
#0673b0:13
#067380:0023000000000000
#067350:00000013000000000000000000000000
#067320:00000000002300000000000000000000
#0673b0:0000001300000000
#067370:0000000000230000
#069350:00000000000000000000000000000013
#070320:00230000
#069381:00000000000000000000000000000013
#0703b1:00230000
#070321:0000000000000000000000000000000013333333333333330000000000000000
#070381:00000026
#071381:13
#0713b1:0023000000000000
#071351:00000013000000000000000000000000
#071321:00000000002300000000000000000000
#071381:0000001300000000
#0713b1:0023
#071321:00000000001c0000
#071361:0000000000000024
