This file was generated by Ched 2.7.0.0.
#TITLE ""
#ARTIST ""
#DESIGNER ""
#DIFFICULTY 0
#PLAYLEVEL
#SONGID ""
#WAVE ""
#WAVEOFFSET 0
#JACKET ""
#REQUEST "ticks_per_beat 480"
#00002: 4
#BPM01: 134
#00008: 01
#TIL00: ""
#HISPEED 00
#MEASUREHS 00
#0051a:1414
#00512:00140000
#00510:41
#00612:1414
#0061a:00140000
#00719:14
#00716:00140014
#00713:0014
#00914:14
#0091a:00140000
#00912:0014
#01112:1616
#01118:00160016
#01319:14
#01313:0014
#01413:14
#01416:00140014
#01419:0014
#0171a:1414
#01712:14
#01714:00000014
#01818:1414
#01812:00140000
#01814:00000014
#03519:14140000
#03513:00001414
#05314:00000014
#0531a:0000000000140000
#05318:0000000000000014
#06112:0000000000000014
#06114:0000000000140000
#06118:00000014
#06110:41
#0701a:14
#07014:00140000
#07018:0014
#07012:00000014
#02918:0014
#02912:00000014
#0291f:11
#0311a:0014
#03114:00000014
#01018:14
#01012:00140000
#0101a:0014
#01513:14
#01519:0014
#01510:41
#01619:14
#01616:00140014
#01613:0014
#0191a:14
#02012:14
#0211a:14
#02112:0014
#02212:14
#02216:00140014
#0221a:0014
#02312:14
#0231a:0014
#0241a:14
#02416:00140014
#02412:0014
#02512:1414
#0251a:14
#02518:00000014
#02510:41
#02614:1414
#0261a:00140000
#02618:00000014
#02712:14
#0281a:14
#03014:0014
#0301a:00000014
#03212:0014
#03218:00000014
#0331a:14
#03312:14
#03318:00140014
#03314:0014
#03412:14
#0341a:14
#03414:00140014
#03418:0014
#0401a:14
#04018:00000034000034000000000000000000
#04312:14
#05418:00000014
#05412:0000000000140000
#05414:0000000000000014
#05718:00000014
#05712:0000000000140000
#05714:0000000000000014
#06012:14000014000000000000000000000000
#0601a:14000014000000000000000000000000
#06019:0000000024000024
#06013:00000000000000000000002400000000
#0621a:0000000000000014
#06218:0000000000140000
#06214:00000014
#0651a:0000000000000014
#06518:0000000000140000
#06514:00000014
#0671a:14
#06714:00140000
#06718:0014
#06712:00000014
#0681a:14000014000000000000000000000000
#06812:14000014000000000000000000000000
#05618:14000034000034000000000000000000
#06414:14000034000034000000000000000000
#03718:0000000000140014
#03714:00000014
#0371f:21
#03814:0000000000140014
#03818:00000014
#03810:41
#04114:0000000000140014
#04118:00000014
#05912:14
#04419:25
#04412:25
#0691a:24000024000000000000000000000000
#06912:24000024000000000000000000000000
#0041a:0000000000240000
#00412:0000000000240000
#00812:0000000000240000
#0081a:0000000000240000
#03613:0000002400000000
#03619:0000002400000000
#05215:0000000000240000
#05212:00000034000034000000000000000000
#0011a:00000034000034000000000000000000
#00212:00000034000034000000000000000000
#0031a:00000034000034000000000000000000
#04812:00000034000034000000000000000000
#05819:00000034000000000000000000000000
#05818:0000003434000000
#06613:00000034000000000000000000000000
#06614:0000003434000000
#07112:00000034000034000000340000000000
#0711a:00000034000034000000340000000000
#04219:00000034000000000000000000000000
#04218:0000003434000000
#05110:41
#04459:15
#04452:15
#0195a:54
#02052:54
#02752:64
#0285a:54
#03653:0000001400000000
#03659:0000001400000000
#04058:0014
#0405a:54
#04352:54
#04855:0000000000140000
#05255:0000000000140000
#07154:0000000000000014
#07158:0000000000000014
#0565a:0014
#05658:54
#06454:64
#06452:0014
#05952:54
#0013a0:14000034000034000000000000000000
#001380:00000024
#002320:14000034000034000000000000000000
#002340:00000024
#0033a0:14000034000034000000000000000000
#003380:00000024
#004320:14
#004330:00000034000000000000000000000000
#004340:0000002400000000
#0083a0:14
#008390:00000034000000000000000000000000
#008380:0000002400000000
#012330:14000034000024000000000000000000
#012391:14000034000024000000000000000000
#0193a1:14
#019381:0024
#020321:14
#020341:0024
#027321:14
#027341:0024
#0283a1:14
#028381:0024
#029341:14240000
#030381:14240000
#031321:14240000
#0323a1:14240000
#036391:14000034000024000000000000000000
#036330:14000034000024000000000000000000
#037390:14000034000024000000000000000000
#038330:14000034000024000000000000000000
#039380:14240000
#039320:00001424
#0403a0:14
#040380:00000034000034002400000000000000
#041330:14000034000024000000000000000000
#0423a0:14
#042390:00000034000000000000000000000000
#042380:0000003434002400
#043320:14
#043340:00000024
#0453a0:14
#045370:00000024
#046320:14
#046350:00000024
#0473a0:14
#047370:00000024
#048320:14000034000034000000000000000000
#048350:0000000000240000
#0493a0:1400003400000000
#049390:00000034000000000000000000000000
#049380:00000024
#050320:1400003400000000
#050330:00000034000000000000000000000000
#050340:00000024
#0513a0:1400003400000000
#051390:00000034000000000000000000000000
#051380:00000024
#052320:14000034000034000000000000000000
#052350:0000000000240000
#0533a0:14
#053390:00000034000000000000000000000000
#053380:0000002400000000
#054320:14
#054330:00000034000000000000000000000000
#054340:0000002400000000
#0553a0:14240000
#055340:00001424
#056380:14000034000034000000000000000000
#0563a0:0024
#057320:14
#057330:00000034000000000000000000000000
#057340:0000002400000000
#0583a0:14
#058390:00000034000000000000000000000000
#058380:0000003434002400
#059320:14
#059340:00000024
#061340:14
#061330:00000034000000000000000000000000
#061320:0000002400000000
#062380:14
#062390:00000034000000000000000000000000
#0623a0:0000002400000000
#063320:14240000
#063380:00001424
#064340:14000034000034000000000000000000
#064320:0024
#065380:14
#065390:00000034000000000000000000000000
#0653a0:0000002400000000
#066320:14
#066330:00000034000000000000000000000000
#066340:0000003434002400
#068390:00001424
#068331:00001424
#071321:14000034000034000000340000000000
#071341:0000000000000024
#0713a0:14000034000034000000340000000000
#071380:0000000000000024
