This file was generated by Ched 2.7.0.0.
#TITLE ""
#ARTIST ""
#DESIGNER ""
#DIFFICULTY 0
#PLAYLEVEL
#SONGID ""
#WAVE ""
#WAVEOFFSET 0
#JACKET ""
#REQUEST "ticks_per_beat 480"
#00002: 4
#BPM01: 220
#00008: 01
#TIL00: ""
#HISPEED 00
#MEASUREHS 00
#00119:14
#00313:14
#00519:14
#00713:14
#01414:14
#06018:14
#06314:14
#08514:14
#0861a:14
#08918:14
#0091a:14
#00910:41
#01012:14
#03014:14
#0311a:14
#02918:14
#03212:14
#03818:16
#05918:14
#0681a:14
#0671a:14
#07212:14
#01118:14
#01214:14
#0131a:14
#02218:14
#01712:14
#0181a:14
#01914:14
#02018:14
#02112:14
#03318:14
#03414:14
#0351a:14
#03612:14
#03912:16
#03918:0016
#04012:16
#04118:16
#04112:0016
#04110:41
#04218:16
#04612:16
#04718:16
#04712:0016
#04818:16
#04912:16
#04918:0016
#05012:16
#03712:0016
#03718:26
#04518:0016
#04512:26
#05519:14
#05713:14
#05710:41
#06414:14
#07112:14
#09012:14
#09314:14
#0941a:14
#09512:14
#09618:14
#12219:14
#09714:14
#0981a:14
#11913:14
#12013:14
#12119:14
#07519:14
#07510:41
#07619:14
#07713:14
#07813:14
#07919:14
#08019:14
#10012:16
#10318:16
#10312:0016
#10418:16
#10718:0016
#10712:26
#1071f:21
#10812:16
#10818:0016
#10810:41
#11118:16
#11112:0016
#11218:16
#11212:0016
#09918:0016
#09912:26
#0911f:11
#08113:24
#08213:24
#02510:41
#015380:14
#016380:24
#023340:14
#024340:24
#0253a0:14
#0263a0:24
#027320:14
#028320:24
#043380:16
#044380:26
#051380:16
#052380:26
#053320:16
#054320:26
#061380:1434
#062380:24
#065340:1434
#066340:24
#0693a0:1434
#0703a0:24
#073320:1434
#074320:24
#0833a0:14
#0843a0:24
#087320:14
#088320:24
#0913a0:14
#0923a0:24
#101320:16
#102320:26
#105380:16
#106380:26
#109320:1636
#110320:26
#113380:1636
#114380:26
#115320:1636
#116320:26
#117380:1636
#118380:26
#123330:14
#125330:0024
