This file was generated by Ched 2.7.0.0.
#TITLE "チュルリラ・チュルリラ・ダッダッダ!"
#ARTIST ""
#DESIGNER ""
#DIFFICULTY 0
#PLAYLEVEL
#SONGID ""
#WAVE ""
#WAVEOFFSET 0
#JACKET ""
#REQUEST "ticks_per_beat 480"
#00002: 4
#BPM01: 220
#00008: 01
#TIL00: ""
#HISPEED 00
#MEASUREHS 00
#00112:00131313
#00118:001300001300
#0011b:000000000013000000000013
#00113:24
#00119:24
#00212:13130000
#00218:000013000000000000130000
#0021b:000000000013000000000000
#0031b:00131313
#00315:001300001300
#00312:000000000013000000000013
#00313:24
#00319:24
#0041b:13130000
#0041b:13
#00415:000013000000000000130000
#00412:000000000013000000000000
#00516:000014000014000014000014
#00512:24130013
#00512:00130000
#0051b:0013
#0051b:0013
#0051a:24
#0061b:13
#00616:000014000014000000000000
#00612:00130000
#00615:00000013
#00716:000014000014000014000014
#0071b:00130013
#00712:2413
#0071a:24
#00812:13
#00816:000014000014000000000000
#0081b:00130000
#00818:00000013
#00912:26130000
#00916:0013
#00914:00000013
#0091b:000000000013000000000000
#00919:000013
#00917:000000000000000000000013
#00918:16
#00910:41
#01012:13
#01018:00130013
#01015:0013
#0171b:00130000
#01717:0013
#01719:00000013
#01712:160000000013000000000000
#01714:000013
#01716:000000000000000000000013
#01718:26
#0181b:13
#01815:00130013
#01818:0013
#0111b:130000000013000000000013
#01115:00130000
#01116:00001414
#01112:130013
#0121b:00000013
#01315:000000130000000000000013
#01312:130000131300
#01318:000000000013000000130000
#0141b:1313
#01412:00130013
#01512:1212
#01514:00120000
#0151c:1212
#01518:00120000
#0151a:00000012
#01516:00000012
#02118:000000130000000000000013
#0211b:130000131300
#02115:000000000013000000130000
#02212:1313
#0221b:00130013
#02415:000013
#02414:000000230013
#02419:000000250000001300000013
#02412:25130000
#0241b:13
#02418:00000023
#02515:00130000
#02518:00001313
#02512:24
#02510:41
#02615:13130000
#0261b:0013
#02618:00000013
#0271b:13
#02715:00131300
#02718:00000013
#02815:00000013
#02918:13240000
#02915:0013
#02914:00000024
#03112:0013
#0311b:0013
#03118:130000000000000013000013
#03115:00000013
#03116:00240000
#0321a:001400000000
#03216:000000130000000014000000
#03218:000000000014000000000000
#03214:0013
#03212:00000013
#03215:13
#03516:00120000
#0351a:0012
#03514:00000012
#03518:12
#0361c:1222
#03619:00120000
#03615:00120013
#03612:1222
#0371b:23130000
#03712:00000013
#03815:13
#03816:00130000
#0381b:000013000000000000130000
#03812:000000000013000000130000
#03817:0013
#04012:13001315
#04016:00130000
#04017:000000000013000000000000
#0401b:001300000000
#04015:000000000000000000000013
#04019:00000015
#04112:00130000
#0411b:00000013
#04110:41
#04312:000013
#0431b:000000000000000000000013
#04316:00001414
#04412:1313
#0441b:00130013
#04515:13
#04518:2313
#0451b:000000130000000000000013
#04512:000000000013000000130000
#04616:1414
#04612:00140014
#04617:001300000000
#0461b:000000000013000000000000
#0461a:00000014
#0501b:000000000000000000000013
#05016:140013000000140000000013
#05012:000000000013000000140000
#0501a:00140014
#05116:00140000
#05119:000013
#05114:00000013
#0511b:000000000000000000000013
#05117:000000000013000000000000
#05112:0013
#05216:13
#05217:00130000
#05212:0023
#0521b:0023
#05319:121200000000
#05312:000000120012000000000000
#0531c:000000121200
#05315:120000000000000000120012
#0951b:000000130013000000000000
#09518:000000000000000013000013
#09515:000000130013000000000000
#09512:250000000000000000000013
#09519:25
#0961b:000000130013000000000000
#09618:000013
#09615:000000000013000000000000
#09612:000013
#09716:12
#09718:00120000
#09714:0012
#0971a:00000012
#09812:1222
#09815:00120000
#09819:000000120000000000001300
#0981c:1222
#09814:000000000000000000130013
#10512:00130013
#1051b:000000000013000000130000
#10518:000000000000000000000013
#10516:2424
#10618:001300000000000000000000
#10612:231300241400
#10615:001300
#1061b:000000230013000000000000
#10616:000000000000001400001400
#1061a:000000000000000000240014
#10715:00130000
#10718:000014000000000000130000
#1071b:0013
#10716:000000000000000000000013
#10712:2613
#10714:000014
#1071f:21
#1081a:1414
#10812:00140013
#10817:000013000000000000130000
#10816:000000000013000000000000
#10810:41
#1101b:1313
#11017:00130000
#11016:000000000013000000000000
#11012:000013000000000000150013
#11019:00000015
#1151c:121200000000
#11515:000000120012000000000000
#11519:000000121200
#11512:120000000000000000120012
#1191a:001400001400
#11912:000000000014000000000014
#11916:00130013
#11917:0013
#11919:24
#11913:24
#12017:1313
#1201a:001400000000
#12012:000000000014000000130000
#12016:00130000
#12112:001400001400
#1211a:000000000014000000000014
#12117:00130013
#12116:0013
#12119:24
#12113:24
#12216:1313
#12212:001400000000
#1221a:000000000014000000000000
#12217:00130000
#1221b:00000013
#12317:000000000012000000000000
#12319:000012
#12314:000000000000000000000012
#12318:131300000000
#12315:000012
#1231a:000000000000000000000012
#1241b:001200130000
#12412:000000000012130000000016
#12418:000000000000000013000016
#12413:001200000000
#1241c:000000000012000000000000
#12415:00000013
#05512:1212
#05513:00120000
#05515:00000012
#05518:26
#05612:12001226
#05613:00120000
#0561a:12
#05714:00000012
#0571c:1212
#0571b:00120000
#05719:00000012
#05710:41
#08212:16261626
#08218:26162616
#0831b:00130000
#08312:243434003434000000130000
#08316:00130000
#08317:00000013
#08318:26
#0831a:000000000000243434003434
#0841b:000000130000233333003333
#08417:00120012
#08412:233333003333000000130000
#08712:14
#08715:000000130000000000000013
#08716:000000000014140000140000
#08718:000013000000000000000013
#0871b:000013
#0871a:14
#0881b:001300000000
#08815:000000130013000000000000
#08818:000000131300
#08812:00000013
#09315:001600001600
#09312:000016000016
#09318:2626
#05918:12
#0591c:0012
#06018:12
#0601a:00120000
#0601c:0012
#0611c:12
#06119:00120000
#0611b:0012
#06118:00000012
#0621c:1212
#06218:00120000
#06312:12
#06316:0012
#06318:12
#0631c:0012
#06412:12
#06414:00120000
#06416:0012
#06418:12
#0641a:00120000
#0641c:0012
#06516:12
#06513:00120000
#06515:0012
#06512:00000012
#0651c:12
#06519:00120000
#0651b:0012
#06518:00000012
#06616:12
#06612:00120000
#0661c:12
#06618:00120000
#06716:12
#06712:0012
#06816:12
#06814:00120000
#06812:0012
#06912:12
#06915:00120000
#06913:0012
#06916:00000012
#07012:1212
#07016:00120000
#0711c:12
#07118:0012
#07116:12
#07112:0012
#0721c:12
#0721a:00120000
#07218:0012
#07216:12
#07214:00120000
#07212:0012
#07318:12
#0731b:00120000
#07319:0012
#0731c:00000012
#07312:12
#07315:00120000
#07313:0012
#07316:00000012
#07418:12
#0741c:00120000
#07412:12
#07416:00120000
#10116:14141414
#10112:24
#1011a:0024
#10312:000000000013000000000000
#1031b:000000000000000000000013
#10316:24142414
#10412:001300000000
#1041b:000000000013000000000000
#10414:2424
#10418:00240000
#01612:12
#01614:00120000
#0161c:12
#01618:00120000
#01912:130000000013000000000013
#01918:00130000
#01916:00001414
#0191b:130013
#02012:00000013
#0231c:1212
#0231a:00120000
#02312:1212
#02316:00120000
#02314:00000012
#02318:00000012
#0331b:130000000000000000000013
#03315:130000000000000013000013
#03312:000000000013000000000000
#03318:000000130013000000000000
#05413:14241400
#05419:24142400
#08512:130000000000130000000013
#0851b:000000130000000013000000
#08516:000013
#08517:000000000000000000000013
#0921b:00000013
#09212:001300000000
#09218:000000130013000000000000
#09215:000000131300
#0911a:14
#09118:000000130000000000000013
#09116:00001414
#09115:000013000000000000000013
#0911b:000000000013000000000000
#09112:140013
#0911f:11
#09414:001400001300
#09412:000014000013
#09419:001300000000
#09417:001300
#09418:000014
#09416:240000230014
#0941b:23
#0941a:0024
#10218:1414
#10214:00140000
#10216:00000014
#1021b:000000000000000000000013
#10213:2424
#10219:00240000
#11212:140000000000140000000013
#11217:000000000013000000000013
#1121a:00140000
#11216:000013000000000000130000
#1121b:00000013
#11316:000000140013000000000000
#11314:000013
#11319:00000013
#11312:000000000000000000000013
#1131b:0013
#11417:13
#11416:00130000
#1141b:0023
#11412:0023
#11613:14241400
#11619:24142400
#1171c:120012
#11719:001200120000
#11715:000000120000000000000012
#11712:120000000012000000120000
#11813:14241400
#11819:24142400
#03412:000000130013000000000000
#03415:000013
#03418:000000000013000000000000
#0341b:000013
#0861b:000013130000000000000000
#08617:0013
#08612:0013
#08616:00130000
#0891b:130000000000130000000013
#08912:000000130000000013000000
#08917:000013
#08916:000000000000000000000013
#09012:000013130000000000000000
#09016:0013
#0901b:0013
#09017:00130000
#03017:13
#03016:00241324
#04218:13
#04217:00130000
#04212:000013000000000000130000
#0421b:000000000013000000130000
#04216:0013
#11118:260000130000000014000000
#11115:00000013
#11112:0013
#11114:001400000000
#1111b:0013
#11117:000000000000000000000013
#04912:000000130000000000000013
#0491b:000000000013000000130000
#04915:0013
#04918:13
#04812:000013000000000000150000
#0481b:1313
#04819:00000015
#04816:000000000013000000000000
#04817:00130000
#04815:000000000000000000000013
#0581c:1212
#0581b:00120000
#05819:00000012
#0991a:24
#09912:0024
#10019:2424
#10013:00240000
#0761c:2222
#07618:00220000
#07816:2222
#07812:00220000
#0781c:2222
#07818:00220000
#08012:2222
#08016:00220000
#07510:41
#00258:00000013
#00455:00000013
#00655:00000013
#00858:00000013
#01058:00530000
#01052:53
#01055:0053
#00958:56
#0185b:63
#01855:00630000
#01858:0053
#01752:66
#0115b:53
#0145b:5353
#01452:00530000
#02252:6363
#0225b:00630000
#0275b:53
#02755:0013
#02758:0013
#03556:00120000
#0355a:0012
#03554:00000012
#03558:12
#03659:00420000
#0365c:4242
#03655:00320000
#03652:3232
#04452:5353
#0445b:00530053
#04555:53
#04558:1353
#0505b:000000000000000000000053
#05056:140000000000140000000053
#0505a:00140000
#05453:00340000
#05459:4444
#02552:14
#05256:53
#05257:00530000
#05252:0013
#0525b:0013
#09658:000063
#09555:000000000063000000000000
#09552:000000000000000000000063
#09756:12
#09758:00120000
#09754:0012
#0975a:00000012
#09852:3232
#09855:00320000
#09859:00420000
#0985c:4242
#10556:1414
#12057:0063
#12052:00000013
#12256:0053
#1225b:00000013
#12458:000000000000000000000066
#12452:000000000000000000000066
#10752:16
#0565a:22
#05652:00000056
#05754:00000022
#05558:56
#08258:1616
#08252:00160016
#08358:16
#08356:00230000
#08357:00000023
#08352:54
#0835a:0054
#08755:000000530000000000000063
#08852:00000063
#05958:52
#0595c:0052
#0605c:0052
#0625c:5252
#06258:00520012
#06352:52
#06356:0052
#06358:52
#0635c:0052
#06456:0052
#0645c:0052
#06656:52
#06652:00520000
#0665c:52
#06658:00520000
#06756:62
#06752:0062
#06852:0062
#07052:6262
#07056:00620012
#0715c:62
#07158:0062
#07156:62
#07152:0062
#07258:0062
#07252:0062
#07458:62
#0745c:00620000
#07452:62
#07456:00620000
#07658:00000012
#0765c:0052
#08457:00220022
#08452:53
#0845b:0053
#0995a:14
#09952:0014
#10059:1414
#10053:00140000
#10152:14
#1015a:0014
#10253:1414
#10259:00140000
#10356:1414
#10454:1414
#10458:00140000
#01952:63
#0375b:43
#09158:000000000000000000000053
#11252:140000000000140000000063
#11257:000000000000000000000063
#1125a:00140000
#11457:63
#11456:00630000
#11452:0013
#1145b:0013
#11659:4444
#11653:00340000
#11859:4444
#11853:00340000
#03455:000053
#03358:000000000053000000000000
#0335b:000000000000000000000053
#03355:53
#08552:530000000000130000000053
#0855b:000000530000000013000000
#08656:00530013
#0865b:00530013
#08657:0053
#08652:0053
#0895b:630000000000130000000063
#08952:000000630000000013000000
#09052:00630013
#09056:0063
#0905b:0063
#09057:00630013
#07856:0052
#0785c:0052
#08052:0062
#03855:13
#03856:00130000
#03857:0013
#04052:1313
#04056:00130000
#04656:1414
#04652:00140000
#10852:00140000
#1085a:1414
#1105b:1313
#11057:00130000
#04258:13
#04257:00130000
#04256:0013
#11158:16
#04955:0063
#04958:63
#0485b:1313
#04857:00130000
#02958:00140000
#02954:00000014
#03056:00140014
#03156:00140000
#002320:0013
#002350:00000023
#0043b0:0013
#004380:00000023
#0063b0:0013
#006380:00000023
#008320:0013
#008350:00000023
#009380:16
#0093b0:00230000
#010320:13
#010350:00230000
#010381:00130000
#0103b1:0023
#010350:0013
#010320:00000023
#0113b0:13
#011380:00230000
#012360:13
#012320:00230000
#0123b1:00130000
#012371:0023
#012320:0013
#012360:00000023
#0133b0:13230000
#0143b0:13
#014380:00230000
#014321:00130000
#014351:0023
#0143b0:0013
#014380:00000023
#0163c0:00001222
#016321:00001222
#017321:16230000
#0183b1:13
#018381:00230000
#018350:00130000
#018320:0023
#018381:0013
#0183b1:00000023
#019321:13
#019351:00230000
#020371:13
#0203b1:00230000
#020320:00130000
#020360:0023
#0203b1:0013
#020371:00000023
#021321:13230000
#022321:13
#022351:00230000
#0223b0:00130000
#022380:0023
#022321:0013
#022351:00000023
#0253b1:13
#025381:00230000
#025321:0013
#025351:00000023
#0263b1:13
#026381:00230000
#026321:0013
#026351:00000033
#027321:23
#0273b0:13
#027380:0023
#027320:00000013
#028350:23
#0283b1:13
#028381:00230000
#028350:00130000
#028320:0023
#0283b1:0013
#028381:00000023
#029321:142400000000
#0293a1:000000142400
#030321:142400000000
#0303a1:000000142400
#031341:142400000000
#033351:13
#033321:00230000
#033381:000000000013000000000000
#0333b1:000023
#0333b1:000000000000000000000013
#034381:00230000
#034351:000013
#035321:23
#036381:00000013
#036391:000000000033
#0363a1:000000000000000000000033
#0373b1:23
#037320:1323
#037360:00330000
#0373b1:0013
#037371:00000033
#0383b1:23
#039321:1333
#039361:00330023
#039370:13
#0393b0:00230000
#039370:0013
#0393b0:00000033
#040370:23
#0413b0:1323
#041370:00330000
#041321:0013
#041361:00000033
#042321:23
#043321:1323
#043361:00330000
#043370:13
#0433b0:00230000
#044321:13
#044361:00230000
#0443b0:00130000
#044370:0023
#044321:0013
#044361:00000023
#0443b0:00000013
#045380:23
#045351:13
#045321:00230000
#045381:0013
#0453b1:00000023
#047361:13
#047321:00230000
#0473b0:1333
#047370:00330023
#047361:0013
#047321:00000033
#048361:23
#049381:13
#0493b1:00230000
#049351:0013
#049321:00000023
#050361:000000000000000000000013
#051321:000053230000000000000000
#0503b0:000000000000000000000013
#051370:002300000000
#052361:13
#052321:00230000
#052370:00130000
#0523b0:0023
#055380:16
#0563a0:52
#056380:00000026
#056321:00000016
#057341:00000052
#058321:00000026
#059381:12
#0593c1:00220000
#0593c1:0012
#059381:00000022
#0603c1:0012
#060381:00000022
#0623c1:1232
#062381:00320022
#063321:12
#063361:00220000
#063380:12
#0633c0:00220000
#063360:0012
#063320:00000022
#0633c1:0012
#063381:00000022
#064361:0012
#064321:00000022
#0643c0:0012
#064380:00000022
#066360:1222
#066320:00320000
#0663c1:1222
#066381:00320000
#067361:12
#067321:00220000
#067321:0012
#067361:00000022
#068321:0012
#068361:00000022
#070321:1232
#070361:00320022
#0713c1:12
#071381:00220000
#071360:12
#071320:00220000
#071380:0012
#0713c0:00000022
#071321:0012
#071361:00000022
#072381:0012
#0723c1:00000022
#072320:0012
#072360:00000022
#074380:1222
#0743c0:00320000
#074321:1222
#074361:00320000
#0753c1:120000000032320000000022
#075391:000032320000000032320000
#0763c1:0012
#076381:00000022
#0773c1:120000000032320000000022
#077391:000032320000000032320000
#077360:120000000032320000000022
#077330:000032320000000032320000
#078360:0012
#078320:00000022
#0783c1:0012
#078381:00000022
#079321:120000000032320000000022
#079351:000032320000000032320000
#080321:0012
#080361:00000022
#081381:120000000032320000000022
#0813b1:000032320000000032320000
#081320:120000000032320000000022
#081350:000032320000000032320000
#083320:143434003434240000000000
#083360:00330000
#0833a1:000000000000143434003434
#083371:00000033
#0843a1:24
#084320:133333003333230000000000
#084370:00320000
#0843b1:000000000000133333003333
#084371:00000032
#0853b1:23
#085320:13
#085360:00230000
#0853b1:00130000
#085371:0023
#085321:000000000000000000000013
#086361:00330023
#086321:0033
#0863b0:00130023
#086370:0033
#087350:00130000
#087320:0023
#087350:000000000000000000000013
#088320:002300000000
#088320:00000013
#089350:23
#0893b1:13
#089371:00230000
#089320:00130000
#089360:0023
#0893b0:000000000000000000000013
#090370:00330023
#0903b0:0033
#090321:00130023
#090361:0033
#091381:000000000000000000000013
#0923b1:002300000000
#095351:000000000013000000000000
#095321:000023
#095321:000000000000000000000013
#096351:00230000
#096381:000013
#0973b1:23
#1093b1:1333
#109371:00330023
#109360:13
#109320:00230000
#109360:0013
#109320:00000033
#110360:23
#112370:000000000000000000000013
#1133b0:000053230000000000000000
#112321:000000000000000000000013
#113361:002300000000
#114370:13
#1143b0:00230000
#114361:00130000
#114321:0023
#120371:0013
#1203b1:00000023
#122361:0013
#122321:00000023
#123351:132300000000
#124381:000000000000000000000016
#1253c1:0022
#124320:000000000000000000000016
#125320:0022
