This file was generated by Ched 2.7.0.0.
#TITLE "チュルリラ・チュルリラ・ダッダッダ!"
#ARTIST ""
#DESIGNER ""
#DIFFICULTY 0
#PLAYLEVEL
#SONGID ""
#WAVE ""
#WAVEOFFSET 0
#JACKET ""
#REQUEST "ticks_per_beat 480"
#00002: 4
#BPM01: 220
#00008: 01
#TIL00: ""
#HISPEED 00
#MEASUREHS 00
#00512:00130000
#00518:0013
#00515:00000013
#0051b:23
#0061b:13
#00612:00130000
#00918:00001313
#00915:000000000013000013000000
#0091a:24
#00912:24
#00910:41
#01018:13
#01012:13
#0101b:00130000
#01015:00130000
#0121b:13130000
#01215:13130000
#01212:00001313
#01218:00001313
#01115:0013
#01112:00000013
#01118:000000000013000013000000
#01318:00001313
#01312:000000000013000000000000
#01315:000013
#01418:13
#01419:00130000
#0141a:0013
#01412:13
#01413:00130000
#01414:0013
#01512:13
#01515:00130000
#0151b:0013
#01518:00000013
#01612:13
#01615:00130000
#02012:13130000
#02018:13130000
#0201b:00001313
#02015:00001313
#01918:0013
#0191b:00000013
#01915:000000000013000013000000
#0231b:13
#02318:00130000
#02312:0013
#02315:00000013
#02715:13
#02718:00000013
#0261b:13
#02612:00130000
#02615:1313
#02618:00130013
#0281b:13
#02818:00130000
#02815:0013
#02812:00000013
#03115:000000000000130000000013
#03118:00230013
#03218:0013
#03215:00000013
#03312:130000000000000000000013
#0331b:130000000000000000000013
#03318:000000000013000013000000
#03315:00130000
#03415:000000000013000000000000
#03418:00130000
#03518:00140000
#03513:0014
#03519:00000014
#03612:1426
#0361a:00140000
#0381b:13
#03818:00130000
#03815:0013
#03812:13
#03912:13
#03918:13130000
#03915:00001313
#0391b:0013
#0431b:13
#04312:00130000
#04318:00001313
#04315:000000000000000013000013
#0531b:13130000
#05312:00001313
#05315:13130000
#05318:00001313
#0461b:13
#04619:00130000
#04617:0013
#04614:001300000000
#04612:000000000013000000000000
#0011b:23130000
#00115:00001313
#00218:13130000
#00312:23130000
#00318:00001313
#00415:13130000
#05512:1c
#05512:2c
#05516:00000000000000000000000000000014
#05612:0000001c
#05716:00000014
#05710:41
#0601b:1313
#06018:00130000
#08416:14
#0841a:003434343434340000000000
#08515:130013
#08518:001300130000
#08512:00140000
#0851a:00000014
#0871b:13
#08715:00130000
#08712:13
#08812:13
#0881b:13
#08818:00130000
#09512:130000000000000000000013
#0951b:130000000000000000000013
#0951b:000000000000000000000032
#09515:000000000013000013000000
#09518:00130000
#09618:000000000013000000000000
#09615:00130000
#09714:00140000
#09719:0014
#09713:00000014
#0981a:14
#09812:00140000
#09818:0026
#09914:14
#09918:0014
#0991a:24
#09912:0024
#10014:1414
#10018:00140000
#1001a:2424
#10012:00240000
#10118:14
#10114:0014
#10112:24
#1011a:0024
#10218:1414
#10214:00140000
#10212:2424
#1021a:00240000
#1031b:13
#10312:0013
#10316:2424
#1041b:1313
#10412:00130000
#10414:2424
#10418:00240000
#10512:13
#1051b:0013
#10516:2424
#1081b:13
#10818:00131300
#10812:130000000013000000000000
#10815:001300000000
#10810:41
#10912:1313
#1091b:13000013
#10915:00130000
#10918:0013
#11912:00130000
#11918:0013
#11915:00000013
#1191b:23
#1201b:13
#12012:00130000
#1211b:00130000
#12115:0013
#12118:00000013
#12112:23
#12212:13
#1221b:00130000
#12418:000000000014000013000000
#12415:00000013
#12412:001400000000
#12414:0014
#0071b:00130000
#00715:0013
#00718:00000013
#00712:23
#00812:13
#0081b:00130000
#01815:13
#0181b:13
#01812:00130000
#01818:00130000
#02115:00001313
#0211b:000000000013000000000000
#02118:000013
#02215:13
#02214:00130000
#02213:0013
#0221b:13
#0221a:00130000
#02219:0013
#02212:00000013
#02218:00000013
#04012:13
#04015:00130000
#04018:0013
#0401b:13
#0421b:13
#04218:00130000
#04215:0013
#04212:13
#04712:13130000
#04718:13
#0471b:00001313
#04715:0013
#04812:13
#04814:00130000
#04816:0013
#04819:001300000000
#0481b:000000000013000000000000
#0501b:13
#05019:00130000
#05017:0013
#05014:001300000000
#05012:000000000013000000000000
#05015:000000000000000000000013
#05118:131300131300
#05115:000000130013000000130013
#0611b:13130000
#06118:00001313
#06415:1313
#0641b:1313
#06418:00130000
#06515:13130000
#06512:00001313
#0651b:13
#06518:0013
#06812:1313
#06815:00130000
#06912:13130000
#06915:00001313
#07218:1313
#07212:1313
#07215:00130000
#07318:13130000
#0731b:00001313
#07312:13
#07315:0013
#08615:130013
#08618:001300130000
#08612:00140000
#0861a:00000014
#0891b:13
#08915:001300000000
#08918:000000140000000013000000
#08912:0013
#08914:00000014
#0901b:13
#09015:001300000000
#09018:000000140000000013000000
#09012:0013
#09014:00000014
#09316:001400001400
#09312:000014000014
#0931a:2424
#09416:001400001400
#09412:000014000014
#0941a:2424
#11512:13130000
#1151b:00001313
#11518:13130000
#11515:00001313
#1171b:1313
#11718:00130013
#11712:00130013
#11715:1313
#1231a:140000000000000000000014
#12312:001400000000
#12318:000000000014000000000000
#12314:000014
#01715:00001313
#01718:000000000013000013000000
#01712:24
#0171a:24
#11315:131300131300
#11318:000000130013000000130013
#11218:000000130000130000000013
#1121b:13
#11212:130000000013000000000000
#11215:001300000000
#11012:13
#11015:00131300
#1101b:130000000013000000000000
#11018:001300000000
#0911f:11
#02918:00230000
#02915:00000023
#0301b:00230000
#03012:00000023
#0441b:23
#04415:00230000
#04418:0023
#04412:00000023
#0521a:24
#05216:00240000
#05212:0024
#08218:2626
#08212:00260026
#10612:24
#10616:003434343434343434000000
#0831a:24
#08316:003434343434343434340000
#05419:2424
#05413:00240000
#11619:2424
#11613:00240000
#11819:2424
#11813:00240000
#11412:24
#11416:00240000
#1141a:0024
#0241b:23
#02418:00230000
#02415:0023
#02412:00000023
#03715:23
#0371b:23
#0451b:23
#04515:23
#07618:00230000
#0761b:0023
#07812:00230000
#07815:0023
#07818:00230000
#0781b:0023
#08015:00230000
#08012:0023
#1071b:23
#10715:23
#1071f:21
#11118:23
#11112:23
#0621a:00330000
#06614:00330000
#0661a:00330000
#07013:00330000
#07419:00330000
#07413:00330000
#02510:41
#04110:41
#07510:41
#02755:53
#02752:0013
#02958:00130000
#02955:00000013
#0305b:00130000
#03052:00000013
#03158:00130000
#03155:000000000000000000000063
#03352:130000000000000000000013
#0335b:130000000000000000000013
#03554:14
#03553:0014
#03558:00140000
#03559:00000014
#03652:1416
#0365a:00140000
#03855:0013
#04657:0013
#05552:5c
#05556:00000000000000000000000000000024
#05652:0000005c
#05756:00000024
#0855a:00000014
#08552:00140000
#09552:130000000000000000000013
#0955b:130000000000000000000013
#09754:00140000
#09759:0014
#09753:00000014
#09758:14
#0985a:14
#09852:00140000
#09858:0016
#10858:0013
#0835a:54
#04058:0013
#04255:0013
#04856:0013
#05057:0013
#05459:1414
#05453:00140000
#08652:00140000
#0865a:00000014
#08958:00140000
#08954:00000014
#09058:00140000
#09054:00000014
#11659:1414
#11653:00140000
#11859:1414
#11853:00140000
#08456:54
#11055:0013
#11258:0013
#05252:0014
#1145a:0014
#0023b0:00001323
#002321:00001323
#004321:00001323
#0043b0:00001323
#006390:00001323
#006341:00001323
#008341:00001323
#008390:00001323
#010320:00001323
#010381:00001323
#011351:13
#011321:00230000
#0133b1:13
#013381:00230000
#016381:00001323
#0183b1:00001323
#018350:00001323
#019380:13
#0193b0:00230000
#021320:13
#021350:00230000
#0253b0:13230000
#025351:13230000
#025381:00001323
#025320:00001323
#027350:13
#027320:0023
#029380:13230000
#029350:00001323
#0303b0:13230000
#030320:00001323
#031380:13230000
#031350:000000000000000000000013
#032320:00230000
#034340:000014
#035340:24
#0373b0:13230000
#037351:13230000
#037321:00001323
#037380:00001323
#041320:13230000
#041381:13230000
#0413b1:00001323
#041350:00001323
#045350:13
#045320:00230000
#0453b1:13
#045381:00230000
#045381:0013
#0453b1:00000023
#045320:0013
#045350:00000023
#049380:13
#0493b0:00230000
#049321:13
#049351:00230000
#049351:0013
#049321:00000023
#0493b0:0013
#049380:00000023
#055320:1c
#055360:00000000000000000000000000000054
#056320:0000003c
#057360:00000054
#058320:0000002c
#0593b0:13230000
#059380:00001323
#0623b0:13
#0623a0:00330000
#062380:0023
#063350:13230000
#0633b1:13230000
#063321:00001323
#063380:00001323
#066350:13
#066340:00330000
#066320:0023
#0663b1:13
#0663a1:00330000
#066381:0023
#067321:13230000
#067351:00001323
#070321:13
#070331:00330000
#070351:0023
#071381:13230000
#071320:13230000
#0713b0:00001323
#071351:00001323
#074381:13
#074391:00330000
#0743b1:0023
#074320:13
#074330:00330000
#074350:0023
#0753b0:130000000000000033330033
#075380:000033330033330000000000
#0763b0:23
#077350:130000000000000033330033
#077320:000033330033330000000000
#078350:23
#0773b1:130000000000000033330033
#077381:000033330033330000000000
#0783b1:23
#079321:130000000000000033330033
#079351:000033330033330000000000
#080321:23
#081381:130000000000000033230000
#0813b1:000033330033330000000000
#081320:130000000000000033230000
#081350:000033330033330000000000
#0833a0:14
#083360:003434343434343434343434
#084360:34
#0843a0:003434343434343434240000
#087380:00001323
#088350:00001323
#091380:1333
#0913b0:00330023
#092350:1333
#092320:00330023
#096380:000014
#097380:24
#106320:14
#106360:003434343434343434240000
#1073b0:13
#107380:00230000
#107351:13
#107321:00230000
#107351:0013
#107321:00000023
#1073b0:0013
#107380:00000023
#111320:13
#111350:00230000
#111381:13
#1113b1:00230000
#111381:0013
#1113b1:00000023
#111320:0013
#111350:00000023
#120390:0013
#1203b0:00000023
#120341:0013
#120321:00000023
#122321:0013
#122341:00000023
#1223b0:0013
#122390:00000023
#124320:000000000000000000000013
#125320:0023
#1243b1:000000000000000000000013
#1253b1:0023
