This file was generated by Ched 2.7.0.0.
#TITLE "チュルリラ・チュルリラ・ダッダッダ!"
#ARTIST ""
#DESIGNER ""
#DIFFICULTY 0
#PLAYLEVEL
#SONGID ""
#WAVE ""
#WAVEOFFSET 0
#JACKET ""
#REQUEST "ticks_per_beat 480"
#00002: 4
#BPM01: 220
#00008: 01
#TIL00: ""
#HISPEED 00
#MEASUREHS 00
#00512:26130013
#0051b:0013
#00518:26
#0061b:1313
#00612:00130013
#00617:0000000000130000
#00916:00120012
#00912:2612
#00918:120000000012000000000012
#0091c:000012
#00910:41
#01116:12
#01117:000000000012000012000012
#01112:0012
#0111c:12000012
#0131b:000000000012000000000000
#01313:000012
#01319:000000000000000000000012
#01312:12
#0131c:12
#01317:00001212
#01418:00120000
#01416:12
#01412:00120012
#0141c:0012
#0241a:000012
#02418:000000000012
#02412:000000000000000000000012
#02416:000000000000001200000000
#0241c:0022
#02414:00000022
#02519:000000000013000000000000
#02514:000000000000000000000013
#02516:0013
#02517:13
#02512:25
#02510:41
#02619:000000000013000000000000
#02617:13
#03112:000013000016000013000023
#0311b:000000000000000013000023
#03118:00261600
#03115:13
#0321a:001400001400
#03214:00130000
#03212:000000000014000000000000
#03219:0013
#03217:000000000000001300130000
#03216:001300
#03317:140012
#03312:00120000
#03316:000000000012000000000000
#03318:000000120012000000000000
#0331c:000000000000000000000012
#03416:000000120012000000000000
#03418:001200000012000000000000
#03417:000012
#03515:12
#0351a:00120000
#03513:0012
#0351c:00000012
#03617:00120000
#03612:130000000000000000143434
#03616:0000000000000014
#0361a:00000014
#0361b:00130000
#03614:0024
#03618:0024
#0371b:00000013
#03712:24130000
#03812:001300140000
#0381b:000000000013000000130000
#0381a:14
#03816:00140013
#04012:00001315
#04017:000000000000000000000013
#04019:00000015
#04016:14
#0401b:00130000
#05317:120017120000120017120000
#05312:120000000017000000000017
#10016:14140000
#1001b:2323
#10012:00230000
#10118:14
#10114:0014
#10116:00140014
#10112:24
#1011a:0024
#10218:14
#10214:00140014
#10212:2424
#1021a:00240000
#10412:14
#1041a:00140000
#10416:24242400
#10517:000000120000000000120012
#10516:2424
#10615:001300000000001300000000
#10618:001300001300
#10616:000014000014
#10619:000000000014000000000014
#10612:2323
#10613:00240024
#12317:000012000012000012000000
#12314:000000000000000000000012
#12319:150000000015000000000000
#12312:000015
#12316:000000000000000000000015
#1241a:001200000000
#12417:000000000012000000000000
#12416:000000000000000000000012
#12418:000000000000160014000012
#12414:00000014
#12415:001500000000
#12412:0016
#09812:00130013
#09812:00000014
#0981a:000000000000000000143434
#09816:0000000000000014
#09817:00120000
#0981b:13
#09818:0024
#09814:0024
#05512:12
#05516:0000000000000012
#05518:26
#05718:00000012
#0571c:12
#05710:41
#02915:001300000000
#02912:13000026
#02918:000000260000000013000000
#0291b:0013
#00215:00000013
#00218:0013
#0021b:000000001300000000000000000000130000000000000000
#00217:12120000
#00212:000000000013000000000000
#00117:00121212
#0011b:001300001300
#00112:240000000013000000000013
#0011a:24
#0121c:00120012
#01212:1212
#01216:14
#0151c:12
#01618:00000012
#01612:0012
#01816:1212
#0181c:12
#0181b:00120000
#0181a:0012
#01812:00120000
#01818:00000012
#02113:000000000012000000000000
#0211b:000012
#02115:000000000000000000000012
#0211c:12
#02112:12
#02117:00001212
#02216:00120000
#02218:12
#0221c:00120012
#02212:0012
#02312:12
#02713:00000014
#02719:00000014
#02716:000000000000000000000014
#0281a:1414
#02816:000013180014000000000000
#02812:14001418
#02817:000013
#03912:1313
#03916:00130013
#0391b:00130013
#03917:0013
#04112:00000013
#0411b:00130000
#04119:15
#04110:41
#04512:26130000
#0451b:00000013
#04215:00000016
#0421b:001300000000
#04212:140000000013000000000000
#04216:00140000
#0421a:0014
#04217:000000000000000000000013
#04316:000000130000000014000000
#0431a:00001414
#04312:130000000000000000000014
#04317:13
#04412:1414
#0441a:00140024
#04417:0013000000130000
#04416:1400001300000000
#04618:14
#04612:00140013
#0461a:0014
#04617:00000013
#04812:00130015
#04819:00000015
#04818:000000000000000000000013
#04816:14
#0481b:0013
#05015:00000016
#0501c:000000000000000000000012
#05016:000000000000000000000012
#05014:14
#0501a:00140000
#05012:0014
#05118:000012120000000000000000
#05117:000000000012120012120000
#05212:2616261c
#05218:00261600
#0831b:001300001300
#08316:001300000000241400000000
#08319:000013000013
#08314:00130013
#08312:000000000013000000000013
#08318:26
#0841b:001300001300
#08418:000013000013
#08416:241400000000241400000000
#08415:00120012
#08412:000000000012000000000012
#10712:00000013
#1071b:00130000
#10718:26
#1071f:21
#10812:140000000013000000130000
#10816:000014140000000000000000
#1081a:0014
#10817:00000013
#10810:41
#11019:00000015
#11016:000014140014140000000014
#11012:00000015
#1101b:13
#1091b:1313
#10912:00130013
#11215:00000016
#1121b:000000000013000000000000
#1121a:14
#11216:000014140000000000000000
#11212:000000000000140000000012
#11218:000000000000000000000012
#11914:001300001300
#11912:260000000013000000000013
#12016:000000001400000000000000000000140000000000000000
#12012:000000000014000000140000
#1201a:0014
#05918:12121200
#0591c:0012
#06018:120000120012000000000000
#0601c:1212
#0601a:001200000000
#0611c:1212
#0611a:00120012
#06118:1212
#0621c:1212
#06218:12121200
#06312:1212
#06318:12
#0631c:00120012
#06316:00120012
#06412:0012
#06418:1212
#0641c:00120000
#06416:00120000
#07518:160016120016000016120016
#0751c:0012
#07510:41
#0771c:001200001200
#07718:000000000012000000000012
#06512:1212
#06516:00120000
#06518:1212
#06612:120000000012120000000000
#0661c:000012120000000000000000
#0661a:00000012
#06618:12
#00418:00000013
#00415:0013
#00412:000000001300000000000000000000130000000000000000
#00417:12120000
#0041b:000000000013000000000000
#00317:00121212
#00312:241300001300
#0031b:000000000013000000000013
#0031a:24
#0071b:00130013
#00712:2613
#00718:26
#00812:1313
#0081b:00130013
#00816:0000000000130000
#01019:00140000
#01012:00000013
#01017:00000013
#0101a:22
#01014:22
#01718:26120012
#0171c:0012
#01712:000012
#01716:120000000012000000000012
#01918:12
#01917:000000000012000012000012
#0191c:0012
#01912:12000012
#02012:00120012
#0201c:1212
#02016:14
#03015:000013000000000000230000
#03012:13
#03018:000000230000000013000000
#0301b:0013
#0471b:1313
#04717:00130013
#04712:00130013
#04716:0013
#0491b:00130000
#04912:00000013
#04918:16
#05412:14261400
#0541a:00140000
#05417:00000012
#05418:2626
#05614:000012
#05612:00000026
#06716:12121200
#06712:0012
#06816:120000120012000000000000
#06812:1212
#06814:001200000000
#06912:1212
#06914:00120012
#06916:1212
#07012:1212
#07016:12121200
#0711c:1212
#07116:12
#07112:00120012
#07118:00120012
#0721c:0012
#07216:1212
#07212:00120000
#07218:00120000
#0731c:1212
#07318:00120000
#07316:1212
#0741c:120000000012120000000000
#07412:000012120000000000000000
#07414:00000012
#07416:12
#08112:001200001200
#08116:000000000012000000000012
#08212:16261626
#08218:26162616
#08518:1414
#08515:001900000000
#0851b:00130000
#08512:000000000000000019130000
#08514:24
#08712:140000000000140000000014
#08716:001400001400000014000000
#08714:001400000000
#08718:00140000
#0871a:000000000014000000140000
#08614:14
#08612:001800000000
#08617:00130000
#08616:000000000000000018130000
#0861a:0014
#0881a:1414
#08816:001400001400000014000000
#08818:001400000000
#08814:00140000
#08812:000000000014000000140000
#08914:1414
#08912:000019130000000000000000
#08915:000019
#0891b:00000013
#08918:24
#09016:000018130000000000000000
#09012:000000141800
#09017:00000013
#09018:14
#0911a:1414
#09116:001600001400000000000014
#09118:001400000000
#09114:00160000
#09112:000000000016000018140000
#0911f:11
#09212:1414
#09214:001614000000000000000000
#09216:000000161400000018000000
#09218:000000000016000000000000
#0921a:00000014
#09312:2c1a182c1916
#09412:261514261413
#09417:001500000000
#09416:001415
#09415:000000000013
#09418:2626
#0951c:00120000
#09518:000000000012000000000000
#09517:000012
#09516:000000120012000000000000
#09512:240000000000000000000012
#0951a:24
#09618:000000120012000000000000
#09616:001200000012000000000000
#09617:000012
#09719:12
#09714:00120000
#0971b:0012
#09712:00000012
#1111b:00000013
#11112:26130000
#11418:26162600
#11412:0026161c
#11717:120012000012000012000012
#1171c:1212
#11712:00120012
#11517:120000000017000000000017
#11512:000017120000000017120000
#1151c:1212
#11612:14271400
#1161a:00140000
#11617:27002712
#11812:14281400
#1181a:00140000
#11817:00000012
#11816:2828
#12119:001300001300
#1211b:000000000013000000000013
#12118:26
#12216:000000001400000000000000000000140000000000000000
#1221a:000000000014000000140000
#12212:0014
#07912:160016000016120016000016
#07916:00120012
#11316:000012120000000000000000
#11317:000000000012120012120000
#10316:2424
#0991a:24
#09912:0024
#0761c:22222200
#07618:00222200
#07812:2222
#0781c:00222200
#07816:00220000
#08012:22222200
#08016:00222200
#00652:00000013
#0065b:00005313
#00657:0000000000230000
#00958:52
#01156:52
#0115c:52
#01458:00520000
#01456:52
#01452:00520000
#0145c:0052
#0315b:000000000000000053000013
#03152:000000000000000053000013
#03158:00460000
#03257:00000053
#03357:140052
#03358:000000000052000000000000
#0335c:000000000000000000000052
#03352:000000000000000000000012
#02552:15
#02557:53
#02556:0053
#10356:1414
#10456:14141400
#10556:1414
#12456:000000000000000000000052
#12458:000000000000000000000052
#05556:0000000000000022
#05558:56
#05758:00000022
#05652:00000056
#00255:00000013
#00258:00006313
#0025b:0000000000230000
#01252:5252
#0125c:00520000
#01256:14
#01257:00121212
#01352:52
#0135c:52
#01553:00120000
#0155c:12
#01557:0012
#01555:00000012
#0165c:1212
#01654:00120000
#01652:0052
#01856:6262
#0185c:12
#0185b:00120000
#0185a:0012
#01852:00620000
#02256:00620000
#02258:62
#0225c:00620000
#02252:0062
#0215c:62
#02152:62
#02352:12
#0235b:00120000
#02357:0012
#02359:00000012
#02452:12
#0245a:00120000
#02657:53
#0275b:1313
#02752:0013
#03456:000000000052000000000000
#03458:002200000000000000000000
#03457:000062
#03557:00121212
#03555:52
#0355a:00520000
#03553:0052
#0355c:12000052
#03657:12120000
#03658:0044
#03654:0034
#03652:33000064
#03656:0000000000000024
#0365b:00430000
#0385a:14
#03856:00140053
#03852:0014
#0385b:00000053
#03957:4343
#0395b:00330033
#03952:5353
#03956:00530053
#04056:44344400
#0405b:00130000
#04052:1313
#04357:53
#04356:00530000
#04452:5454
#0445a:00540044
#04457:0023000000230000
#04456:0000002300000000
#04658:14
#04652:00140063
#0465a:0014
#04657:00000063
#05056:000000000000000000000052
#05054:14
#0505a:00140000
#05052:0014
#05252:3636
#05258:00460000
#08358:16
#0985a:00000054
#09856:0000000000000024
#09857:12120000
#09858:0044
#09854:0034
#09852:00330000
#0985b:43
#10852:14000063
#10856:00140000
#1085a:0014
#10857:00000063
#1095b:6353
#10956:3333
#10957:00430043
#10952:00530053
#1105b:43
#11056:330034440034440000000000
#1205a:00005444
#12056:0000000000240000
#12052:00000034
#08258:4646
#08252:00360036
#05958:52
#0595c:0052
#0605c:0052
#0625c:5252
#06258:00520012
#06352:0052
#06358:52
#06356:00000052
#0635c:00520000
#06452:0052
#0645c:00520000
#06458:0052
#07658:00000012
#0765c:0052
#06552:5252
#06556:00520000
#06558:5252
#06652:5252
#0665c:00520000
#00458:00000013
#00455:00005313
#00452:0000000000230000
#0085b:00000013
#00852:00006313
#00856:0000000000230000
#0105a:52
#01059:00240000
#01756:62
#01958:62
#01952:62
#0205c:6262
#02052:00620000
#02056:14
#02057:00121212
#03752:34
#04252:14
#04256:00140000
#0425a:0014
#0475b:6363
#04757:00630063
#04752:00430043
#04756:3333
#04856:34443400
#04852:00130000
#0485b:1313
#05158:00520000
#05157:00005252
#05458:4646
#05452:00360000
#05457:00000012
#06756:62
#06752:0062
#06852:0062
#07052:6262
#07056:00620012
#0715c:0062
#07156:62
#07152:00620000
#07158:00000062
#0725c:0062
#07252:00620000
#07256:0062
#0735c:6262
#07358:00620000
#07356:6262
#0745c:6262
#07452:00620000
#08752:0014
#0875a:00000014
#0885a:0014
#08852:00000014
#0915a:0014
#09152:00000014
#09252:0014
#0925a:00000014
#09557:000062
#09556:000000000062000000000000
#09552:000000000000000000000062
#0955c:000000000000000000000012
#09658:000000000062000000000000
#09656:002200000000000000000000
#09657:000052
#09759:62
#09754:00620000
#0975b:0062
#09752:12000062
#09757:00121212
#0995a:44
#09952:0034
#1005b:4343
#10052:00330000
#10252:3434
#1025a:00440000
#10152:34
#1015a:0044
#10758:46
#1125a:14
#11256:00140000
#11252:0014
#11258:000000000000000000000062
#11152:36
#11452:00360000
#11458:4646
#11657:47004712
#11652:00370000
#11856:4848
#11852:00380000
#11857:00000012
#1225a:00000044
#12252:00006434
#12256:0000000000240000
#11356:00620000
#11357:00006262
#0785c:0052
#07852:0052
#08052:0062
#02958:00460000
#02952:00000036
#03058:00430000
#03055:00000033
#04552:16
#002380:00001323
#0023b0:0000000000530000
#004350:00001323
#004320:0000000000530000
#005360:000014240000000000000000
#005360:000000000014240000000000
#005360:000000000000000014240000
#005360:000000000000000000000014
#006360:24
#006360:000014240000000000000000
#006360:000000000014240000000000
#0063b1:00001323
#006371:0000000000530000
#007361:000014240000000000000000
#007361:000000000014240000000000
#007361:000000000000000014240000
#007361:000000000000000000000014
#008361:24
#008361:000014240000000000000000
#008361:000000000014240000000000
#008320:00001323
#008360:0000000000530000
#009380:12
#0093c0:00220000
#010340:120000000000000000000000000000000000000000000000000000000000000000000000000000000000000000000000000000000000000000000000000000000000000000000000000000000000000000000000000000000000000000000000000000000000000000000000005200000000000000000000000000000000000000000000000000000000000000000000000000000000000000000000000000000000000000000000000000000000000000000000000000000000000000000000000000000000000000000000000000000000000000000000000000000000000000000000000000000000000000000000220000000000000000000000000000000000000000000000000000000000000000000000000000000000000000000000000000000000000000000000000000000000000000000000000000000000000000000000000000000000000000000000000000000000000000000000000000000000000000000000000000000000000000000000000000000000000000000000000000000000000000000000000000000000000000000000000000000000000000000000000000000000000000000000000000000000000000000000000000000000000000000000000000000000000000000000000000000000000000000000
#010320:000000000000000000000000000000000000000000000000000000000000000000000000000000000000000000000000000000000000000000000000000000000000000000000000000000000000000000000000000000000000000000000000000000000000000000000000000056000000000000000000000000000000000000005654000000000000000000000000000000000000000000000000000000000000000000000000000000000000000000000000000000000000000000000000000000000000000000000000000000000000000000000000000000000000000000000000000000000000000000000000000000000000000000000000000000000000000000000000000000000000000000000000000000000000000000000000000000000000000000000000000000000000000000000000000000000000000000000000000000000000000000000000000000000000000000000000000000000000000000000000000000000000000000000000000000000000000000000000000000000000000000000000000000000000000000000000000000000000000000000000000000000000000000000000000000000000000000000000000000000000000000000000000000000000000000000000000000000000000000000000
#0103a1:1222
#010391:00340000
#011361:12
#011321:00220000
#0113c0:12
#011380:00220000
#012320:12
#012370:00220000
#0123c1:00120000
#012371:0022
#012320:0012
#012370:00000022
#0133c0:12
#013380:00220000
#013321:12
#013361:00220000
#014361:1222
#014321:00320000
#014380:00120022
#0143c0:0032
#015360:12
#015330:00220000
#0153a1:00120000
#015371:0022
#015320:0012
#015350:00000022
#015391:00000012
#0163c1:22
#016370:12
#016340:00220000
#016391:00120000
#0163c1:0022
#016320:0012
#016360:00000022
#017360:12
#017320:00220000
#018360:1232
#018320:00320022
#019380:12
#0193c0:00220000
#019321:12
#019361:00220000
#0203c1:12
#020371:00220000
#020320:00120000
#020370:0022
#0203c1:0012
#020371:00000022
#021321:12
#021361:00220000
#0213c0:12
#021380:00220000
#022380:1222
#0223c0:00320000
#022361:00120022
#022321:0032
#023381:12
#0233b1:00220000
#023340:00120000
#023370:0022
#0233c1:0012
#023391:00000022
#023350:00000012
#024320:22
#024371:12
#0243a1:00220000
#024350:00120000
#024320:0022
#025370:13
#0253b0:00230000
#025321:000000130023000000000000
#025361:0013
#025321:00000023
#0253b0:000000000000000000130023
#026370:13
#0263b0:00230000
#026321:000000130023000000000000
#026361:000000000000130000000033
#026321:000000000000000033330000
#027361:33
#027321:00332300
#026380:000000000000000013230000
#0263b0:000000000000000000000013
#0273b0:23
#027370:000013230000000000000000
#0273b0:000000000013230000000000
#029380:16260000
#029320:00001626
#030380:13230000
#030350:00001323
#031380:16260000
#031320:000013
#0313b0:000000000000000000000023
#0313b1:000013
#031321:000000000000000000000023
#032371:00000013
#033321:23
#033381:000000000012000000000000
#0333c1:000022
#033370:000012
#033320:000000000000000000000022
#0333c1:000000000000000000000012
#034381:005200000000000000000000
#0343c1:00220000
#034361:000000000012000000000000
#034321:000022
#034370:000012
#0353c0:22
#035351:12
#035371:00220000
#0353a0:00120000
#035370:0022
#035331:0012
#035371:00000022
#0353c0:00000012
#036370:22
#036320:000000000000000000143434
#036360:0000000000000054
#037320:24
#0373b1:1323
#037371:005300330033000000000000
#037320:0013
#037360:000000000000005300330033
#038320:23
#038360:00000013
#039320:5353
#039360:00530053
#040320:23
#0383b1:00000013
#039371:23
#040360:000014240000000000000000
#040360:000000000014240000000000
#041320:1323
#041360:005300330033000000000000
#0413b1:0013
#041371:000000000000005300330033
#0423b1:23
#043371:13
#0433b1:00230000
#043360:00130000
#043320:0023
#044320:14240000
#044370:0053000000000000
#0443a1:00142400
#044361:0000005300000000
#044320:00001424
#044370:0000000000530000
#045380:1323
#0453b0:005300330033000000000000
#045351:0013
#045321:000000000000005300330033
#046351:23
#046371:000013230000000000000000
#046361:000000000013230000000000
#046371:00000013
#0473b1:5353
#047371:00530053
#0483b1:23
#046320:00000013
#047360:23
#048361:000014240000000000000000
#048361:000000000014240000000000
#049351:1323
#049321:005300330033000000000000
#049380:0013
#0493b0:000000000000005300330033
#050380:23
#050360:000013230000000000000000
#050370:000000000013230000000000
#050360:000000000000000000000012
#051320:002200000000
#051380:00120000
#0513c0:0022
#051371:0012
#051321:00000022
#051370:00000012
#0523c0:22
#055380:16
#055360:0000000000000052
#056380:00000026
#055341:000012220000000000000000
#055321:000000000012220000000000
#055341:000000000000000012220000
#055321:000000000000000000000012
#056321:22
#056341:000012220000000000000000
#056321:000000000012220000000000
#056321:00000016
#057381:00000052
#058321:00000026
#0573a0:000012220000000000000000
#0573c0:000000000012220000000000
#0573a0:000000000000000012220000
#0573c0:000000000000000000000012
#0583c0:22
#0583a0:000012220000000000000000
#0583c0:000000000012220000000000
#0583a0:000000000000000012220000
#059380:12
#0593c0:00220000
#0593c0:0012
#059380:00000022
#0603c0:0012
#060380:00000022
#0623c0:1232
#062380:00320022
#063380:1222
#0633c0:00320000
#063321:0012
#063361:00000032
#064321:22
#0643c1:00120022
#064381:0032
#064320:0012
#064360:00000022
#065320:1232
#065360:00320022
#065381:12
#0653c1:00220000
#065381:0012
#0653c1:00000022
#066321:12
#066361:00220000
#0663c0:00120000
#066380:0022
#066321:0012
#066361:00000022
#067361:12
#067321:00220000
#067321:0012
#067361:00000022
#068321:0012
#068361:00000022
#070321:1232
#070361:00320022
#071361:1222
#071321:00320000
#0713c0:0012
#071380:00000032
#0723c0:22
#072320:00120022
#072360:0032
#0723c1:0012
#072381:00000022
#0733c1:1232
#073381:00320022
#073360:12
#073320:00220000
#073360:0012
#073320:00000022
#0743c0:12
#074380:00220000
#074321:00120000
#074361:0022
#0743c0:0012
#074380:00000022
#0763c0:0012
#076380:00000022
#077320:12
#077360:002200000000
#077360:00120000
#077320:000000000022000000000000
#077320:0012
#077360:000022
#077360:00000012
#077320:000000000000000000000022
#0783c0:0012
#078380:00000022
#078321:0012
#078361:00000022
#080321:0012
#080361:00000022
#0813c1:12
#081381:002200000000
#081381:00120000
#0813c1:000000000022000000000000
#0813c1:0012
#081381:000022
#081381:00000012
#0813c1:000000000000000000000022
#085351:00132300
#085381:00000013
#086381:23
#086321:00132300
#0863b1:00000013
#0873b1:23
#089381:00132300
#089351:00000013
#090351:23
#0903b1:00132300
#090321:00000013
#091321:23
#095361:000000000012000000000000
#095321:000022
#095370:000012
#0953c0:000000000000000000000022
#095321:000000000000000000000012
#096361:005200000000000000000000
#096321:00220000
#096381:000000000012000000000000
#0963c1:000022
#096370:000012
#097320:22
#097391:12
#097371:00220000
#097340:00120000
#097370:0022
#0973b1:0012
#097371:00000022
#097320:00000012
#098370:22
#0983a0:000000000000000000143434
#098360:0000000000000054
#0993a0:24
#099361:14240000
#099361:00001424
#100361:00001424
#102381:00001424
#103321:14240000
#1033a1:00001424
#104321:00001424
#1053a1:14240000
#105321:00001424
#107321:1323
#107361:005300330033000000000000
#1073b0:0013
#107370:000000000000005300330033
#1083b0:23
#108370:00000013
#1093b0:53
#109370:00230000
#108321:00000013
#109361:23
#109321:00130000
#109361:0023
#1093b0:0013
#109370:00000023
#109321:00000013
#110361:23
#1113b1:1323
#111371:005300330033000000000000
#111320:0013
#111360:000000000000005300330033
#112320:23
#112380:000000000000000000000012
#1133c0:002200000000
#113360:00120000
#113320:0022
#113371:0012
#1133c1:00000022
#113370:00000012
#114320:22
#1193a0:142400000000
#119360:000000140024000000000000
#1193a0:000000142400
#119360:000000000000000000140024
#1203a0:142400000000
#120360:000000140024000000000000
#1203a0:00001424
#120360:0000000000540000
#121320:142400000000
#121360:000000140024000000000000
#121320:000000142400
#121360:000000000000000000140024
#122320:142400000000
#122360:000000140024000000000000
#122320:00001424
#122360:0000000000540000
#123320:152500000000
#124360:000000000000000000000012
#125320:0022
#124381:000000000000000000000012
#1253c1:0022
