This file was generated by Ched 2.7.0.0.
#TITLE ""
#ARTIST ""
#DESIGNER ""
#DIFFICULTY 0
#PLAYLEVEL
#SONGID ""
#WAVE ""
#WAVEOFFSET 0
#JACKET ""
#REQUEST "ticks_per_beat 480"
#00002: 4
#BPM01: 220
#00008: 01
#TIL00: ""
#HISPEED 00
#MEASUREHS 00
#06018:14
#08518:14
#08512:0014
#08618:14
#08612:0014
#0091a:14
#00914:0014
#00910:41
#0291a:0014
#02912:14
#03112:14
#03218:14
#03214:0014
#05918:14
#0591a:0014
#01112:14
#0111a:0014
#03414:1414
#03914:14
#03918:0014
#04014:14
#04012:00340000
#03712:0014
#0371a:24
#09514:14
#09618:14
#0751a:1414
#07514:00140014
#07510:41
#0761a:14141400
#07712:1414
#07718:00140014
#09914:2414
#0991a:2414
#10714:0014
#1071a:24
#1071f:21
#10818:1414
#10812:00140000
#10810:41
#01318:14
#01312:0014
#01512:14
#0151a:0014
#01614:14
#0161a:0014
#01712:14
#01718:0014
#0191a:14
#01912:0014
#02114:14
#0211a:0014
#0231a:14
#02312:0014
#02418:14
#02412:0014
#0251a:14
#02512:0014
#02510:41
#02618:14
#02612:0014
#0271a:14
#02814:14
#02818:0014
#0301a:0014
#03014:14
#03318:1414
#0381a:14
#03818:00340000
#0411a:14
#04112:0014
#04110:41
#04218:14
#0421a:00340000
#04412:14
#04418:00140000
#04414:0014
#0441a:00000014
#04314:14
#04318:0014
#04718:14
#04714:0014
#04818:14
#0481a:00340000
#0451a:0014
#04512:24
#04612:14
#04614:00340000
#04912:14
#0491a:0014
#05014:14
#05012:00340000
#0521a:14
#05214:00140000
#05218:0014
#05118:14
#05114:0014
#05314:14
#0531a:14
#05312:0014
#05318:0014
#06414:14
#06314:14
#06312:0014
#0681a:14
#0671a:14
#06718:0014
#07212:14
#07112:14
#07114:0014
#07812:14141400
#07918:1414
#07914:00140014
#0801a:1414
#08012:00140000
#08312:14
#08414:14
#08914:14
#0891a:0014
#09014:14
#0901a:0014
#0871a:14
#08818:14
#1001a:14
#10014:14
#10118:1414
#10112:1414
#10212:14
#10218:14
#10314:1414
#1031a:1414
#1041a:14
#10414:14
#10512:1414
#10518:1414
#10612:14
#10618:14
#11018:1414
#11014:00140000
#11118:0014
#11112:14
#11214:1414
#1121a:00140000
#11414:1414
#11418:00140000
#08114:1414
#08118:00140014
#1151a:14
#1151a:14
#11514:0014
#11712:14
#11718:0014
#12319:14
#12313:14
#0101a:14
#01418:14
#01812:14
#02214:14
#01212:14
#01214:00340000
#0201a:14
#02018:00340000
#0551a:1414
#05618:1414
#05712:1414
#05710:41
#05814:1414
#0911f:11
#08212:2424
#0821a:00240024
#0385a:64
#04054:64
#04258:54
#04858:54
#04652:54
#05054:64
#08352:54
#08454:64
#0875a:64
#08858:54
#1165a:0014
#11852:0014
#03655:0016
#09855:0016
#01252:54
#0205a:64
#00258:0014
#00452:0014
#0065a:0014
#00854:0014
#12059:0014
#12253:0014
#0013a0:14
#001380:0034
#0023a0:34
#002380:0024
#003340:14
#003320:0034
#004340:34
#004320:0024
#005380:14
#0053a0:0034
#006380:34
#0063a0:0024
#007320:14
#007340:0034
#008320:34
#008340:0024
#012320:14
#012340:00342400
#0203a0:14
#020380:00342400
#035350:16363636
#036350:36362600
#0383a0:14
#038380:00342400
#040340:14
#040320:00342400
#042380:14
#0423a0:00342400
#046320:14
#046340:00342400
#048380:14
#0483a0:00342400
#050340:14
#050320:00342400
#054340:14342400
#0543a1:14342400
#061391:1434
#061381:00340000
#0613a1:00000034
#062391:3424
#062381:00340000
#065331:1434
#065341:00340000
#065321:00000034
#066331:3424
#066341:00340000
#069391:1434
#069381:00340000
#0693a1:00000034
#070391:3424
#070381:00340000
#073331:1434
#073341:00340000
#073321:00000034
#074331:3424
#074341:00340000
#083321:14
#083341:0034
#084341:34
#084321:0024
#0873a1:14
#087381:0034
#088381:34
#0883a1:0024
#091321:14
#092341:24
#0933a1:14
#094381:24
#097351:16363636
#098351:36362600
#1093a1:14
#109381:00240000
#109321:0014
#109341:00000024
#113321:14
#113341:00240000
#1133a1:0014
#113381:00000024
#1163a1:14342400
#118321:14342400
#119391:14
#119381:0034
#1203a1:34
#120391:0024
#121331:14
#121341:0034
#122321:34
#122331:0024
#124331:000000000000000000000014
#125331:0024
#124390:000000000000000000000014
#125390:0024
