This file was generated by Ched 2.7.0.0.
#TITLE ""
#ARTIST ""
#DESIGNER ""
#DIFFICULTY 0
#PLAYLEVEL
#SONGID ""
#WAVE ""
#WAVEOFFSET 0
#JACKET ""
#REQUEST "ticks_per_beat 480"
#00002: 4
#BPM01: 152
#00008: 01
#TIL00: ""
#HISPEED 00
#MEASUREHS 00
#03612:14
#03518:14
#03414:14
#0331a:14
#03310:41
#03018:14
#02912:14
#02819:14
#02719:14
#02613:14
#02513:14
#02510:41
#02214:14
#0211a:14
#02013:14
#01913:14
#01819:14
#01719:14
#01710:41
#01418:14
#01318:14
#01214:14
#01114:14
#0101a:14
#0091a:14
#00910:41
#00618:14
#00512:14
#0041a:14
#00314:14
#00218:14
#00112:14
#0371a:14
#0371f:11
#03814:14
#04312:0016
#04318:26
#0431f:21
#04418:16
#04412:0016
#04410:41
#04718:1616
#04812:1616
#04918:16
#04912:0016
#05018:16
#05118:0016
#05112:26
#05212:16
#05218:0016
#05512:1616
#05510:41
#05618:1616
#05712:16
#05718:0016
#05812:16
#06112:14
#06218:14
#06314:14
#007340:14
#008340:24
#015320:14
#016320:24
#0233a0:14
#0243a0:24
#031320:14
#032320:24
#039380:14
#0403a0:24
#041340:14
#042320:24
#045380:1626
#046320:1626
#053320:1626
#054380:1626
#059390:1400000000000034
#060390:0024
#0643a0:14
#0683a0:00000024
