This file was generated by Ched 2.7.0.0.
#TITLE ""
#ARTIST ""
#DESIGNER ""
#DIFFICULTY 0
#PLAYLEVEL
#SONGID ""
#WAVE ""
#WAVEOFFSET 0
#JACKET ""
#REQUEST "ticks_per_beat 480"
#00002: 4
#BPM01: 152
#00008: 01
#TIL00: ""
#HISPEED 00
#MEASUREHS 00
#0011b:1300000000000013
#00112:1300000013000013
#00115:0000000000130000
#00118:00130013
#00018:0013
#00015:00000013
#00212:0000130000000013
#0021b:0000130000000013
#00218:00001313
#00215:0000000000130000
#0031b:0000130000000013
#00312:0000130000000013
#00315:00001313
#00318:0000000000130000
#00412:00130000
#0041b:00130000
#00415:0013
#00418:00000013
#00512:1300000000000013
#0051b:1300000013000013
#00518:0000000000130000
#00515:00130013
#0061b:0000130000000013
#00612:0000130000000013
#00615:00001313
#00618:0000000000130000
#00818:00000000000000001300000000333333
#00812:24002400000000000033333300000000
#0081a:2424000000000000
#00918:0013001300001300
#00915:0000130000130000
#0091b:2300130013000013
#00912:2300000013000013
#00910:41
#01015:0013001300001300
#01012:0000130013000013
#01018:00130000000000000000130000000000
#0101b:0000000013000013
#01118:0013001300001300
#0111b:0000130013000013
#01115:00130000000000000000130000000000
#01112:0000000013000013
#01215:0013001300001300
#01212:00131300
#01218:00130000000000001300000000000000
#01216:0000000000140014
#0121b:00000013
#01318:13000013000000000000000000000000
#01312:1400000000000013
#0131b:0000001300000000
#0131a:0014
#01315:00000000000000001300001300000000
#01412:14000000000000000000001300000000
#01418:1300001300000000
#0141b:00000013000000000000000000000000
#0141a:0014
#01415:0000000013000013
#0151b:13
#01512:13
#01515:0013
#01518:0013
#0161b:2300001300000013
#01612:2300001300000013
#01718:1300001313000000
#01715:1300000013000013
#01712:00000013000000000000000000000000
#0171b:00000000000000000000001300000000
#01710:41
#0181b:13130000
#01818:0013000013000013
#01815:00130000
#01812:0013
#01912:1300000000130000
#01918:0000130000000013
#01915:0000001300000000
#0191b:0000001300000000
#02012:0000001300000000
#02015:00001313
#02018:0000000000130000
#0201b:0013000000001300
#02118:1300001313000000
#02115:0013
#02112:1300000000000013
#02215:13
#02219:13130013
#02217:0013000000000013
#0221b:0000001300000000
#02214:00131300
#02212:0000001300000000
#02216:0000000000130000
#02915:1300000000130013
#02918:0000001313001300
#0291b:13
#02912:0000001313000000
#03018:1300130000000013
#0301b:0000001300001300
#03015:0000001300130013
#03012:13000013
#03212:0000001300001300
#03215:0013000013000000
#03218:0000130000130000
#0321b:0013001300001300
#0331b:00231313
#03315:0000000000130000
#03318:0000000000000013
#03312:00231313
#03310:41
#03412:0013001300001300
#0341b:0000001300001300
#03418:0013
#03415:0000000000130000
#03618:00130000
#0361b:1300001300000000
#03615:0013000000000000
#03612:1300001300000000
#03718:1313000000130013
#03715:0000131300000000
#0371b:00130013
#03712:13001313
#0371f:11
#0381b:13130013
#03815:0013001300000000
#03812:00130000
#03818:0000001300000000
#0391b:0000131313000000
#03912:1300000000000023
#03917:00000000000000000000000000000013
#03916:0023
#04118:13
#0411b:0000000000130000
#04119:00000013
#04116:0000000000000014
#04115:13
#04112:0000000000130000
#04114:00000013
#04318:0013
#04319:0000000000130000
#0431a:24000013
#0431b:0000000000000013
#04316:00140000
#04312:2413
#04314:00000013
#0431f:21
#0441b:0000001300000013
#04419:00001313
#04417:0000000000130000
#04412:1313
#04414:00130013
#04410:41
#0451b:00130013
#04518:0000001300130013
#04512:1313
#04514:00130013
#04617:0013
#0461b:00000013
#04612:1313
#04614:0000130000130000
#04616:00000013
#04619:0000000000000013
#04717:13
#04718:0000131300000013
#04715:0000001300130000
#04712:13001313
#0471b:00001313
#04815:1300000013000013
#04814:0013000000000000
#04813:00130000
#04812:0000001300000000
#04818:0000001300001300
#0481b:1313
#0481a:0013000000000000
#04819:00130000
#04912:1300002300000023
#04915:0000130000231300
#04918:0000002313000023
#0491b:1300000000230000
#05418:00000013
#05415:1300000000000013
#0541b:1313
#05419:00130000
#0551a:14
#05515:0000001300000000
#05512:0014
#05518:0000000000000013
#05510:41
#05818:0000001313000013
#0581b:23000000000000000000001300000000
#05812:2300001300000013
#05815:00000000000000000000001300000000
#05912:13
#0591b:0000000013001313
#05918:00130000
#05916:0000000000000013
#06012:0012
#06014:00000012
#06018:0012
#0601a:00000012
#06116:12
#06112:00121200
#06115:0000000000120000
#06118:00120012
#0611b:0000000000000012
#0611c:12
#0621b:0000120000000023
#0621c:0012
#06219:0000000000120000
#06216:00000012
#06212:0000000000000023
#0631b:0013
#06319:000013
#06317:000000000013
#06316:0013
#06314:000013
#06312:000000000013
#02312:13
#02316:0000001300000000
#0231b:0000001300000000
#0241b:1300001300131313
#02412:0000000000131313
#02515:1300001313000000
#02518:1300000013000013
#0251b:00000013000000000000000013000000
#02512:00000000130000000000001300000000
#02510:41
#02612:13130000
#02615:0013001313000013
#02618:00130000
#0261b:0013
#0271b:1300000013130000
#02715:0000130000000013
#02718:0000001300000000
#02712:1300001300001300
#0281b:1300131300000000
#02818:00001313
#02815:0000000000130000
#02812:0013000000001300
#03112:0000001300000000
#0311b:1300130000131300
#03118:0000001313000013
#03512:00231313
#03517:0000000000130000
#0351b:00231313
#03516:0000000000000013
#04214:0012000000000000
#0421a:00120000
#04216:00002424
#04212:0023
#0421b:00000023
#0501b:0013130023000000
#05012:0013130000002300
#05016:00002424
#05115:0013
#05114:0000000000130000
#05113:00000013
#05112:2400000000000013
#05116:00140000
#0511b:0013
#05119:00000013
#0511a:24
#05212:0000001300000013
#05214:00001313
#05216:0000000000130000
#0521b:1313
#05219:00130013
#05314:00131313
#05312:0000001300000013
#05316:0013000000130000
#0531b:1313
#05319:00130013
#0561a:14
#05618:00000013000000000000000000001300
#05615:00000000000013000000001300000000
#05612:1314
#0561b:0013
#0401b:0013
#04014:0023000000130000
#04019:00000013
#04012:0000000000000013
#04016:0000002300000000
#05712:13
#0571b:13
#05718:0013
#05715:0013
#00652:0000000000000053
#0065b:0000000000000053
#0095b:1300000000000053
#00952:1300000000000013
#01058:00230000000000000000000000000000
#01052:0000000000000063
#0105b:0000000000000013
#01155:00230000000000000000000000000000
#0115b:0000000000000053
#01152:0000000000000013
#01258:00230000000000000000000000000000
#01552:53
#0155b:53
#01555:0023
#01558:0023
#0165b:1300005300000000
#01652:1300005300000000
#01755:53
#01758:0053
#01752:00000023000000000000000000000000
#0175b:00000000000000000000002300000000
#01855:00530000
#01852:0053
#01858:0053
#01952:5300000000530000
#0195b:0000005300000000
#01958:0000000000000053
#0015b:1300000000000013
#00152:1300000000000013
#0025b:0000000000000013
#00252:0000000000000013
#00352:0000000000000013
#0035b:0000000000000013
#0055b:1300000000000013
#00552:1300000000000013
#01352:14
#0135a:0014
#01452:14
#0145a:0014
#0205b:0023000000000000
#02152:53
#02158:0053
#02259:53530053
#02257:0023000000000023
#0225b:0000002300000000
#02254:00535300
#02252:0000002300000000
#02256:0000000000230000
#02352:53
#02356:0000002300000000
#0235b:0000002300000000
#02658:00630000
#02655:0063
#0265b:0063
#0275b:6300000000630000
#02755:0000000000000063
#02752:0000006300000000
#02558:63
#02555:0063
#0255b:00000023000000000000000000000000
#02552:00000000000000000000002300000000
#02852:0023000000000000
#03052:53
#0305b:0000005300000000
#03055:0000000000000053
#03152:0000002300000000
#03358:0000000000000053
#0335b:00130000
#03352:00130000
#03652:0000005300000000
#0365b:0000005300000000
#03755:0000005300000000
#03752:0023
#03758:0000000000000063
#0385b:23000053
#03855:0000005300000000
#03952:53
#0395b:0053
#03957:00000000000000000000000000000023
#04254:0032000000000000
#0425a:00420000
#04252:0013
#0425b:00000013
#04158:53
#04155:63
#04352:14
#0435a:14
#0435b:0000000000000053
#0445b:0000000000000053
#04558:0000000000000053
#04752:53000023
#04758:0000005300000000
#04755:0000000000530000
#0475b:0023
#0495b:53
#05152:1400000000000063
#0515a:14
#05455:53
#0555a:14
#05552:0014
#0565a:14
#05652:5314
#05658:00000053000000000000000000000000
#05655:00000000000000000000006300000000
#0565b:0063
#05952:53
#05956:0000000000000053
#0595b:0000000000000053
#03552:00130000
#0355b:00130000
#05752:63
#0575b:63
#05758:0023
#05755:0023
#0585b:13
#05852:13
#0505b:0013
#05052:00000013
#0063b0:0000000000000013
#007380:00000023
#006321:0000000000000013
#007351:00000023
#008321:00000000000000001333333300000000
#008351:00000023
#008380:00000000000000000000000013333333
#0093b0:23
#0093b0:0000000000000013
#010380:00530000000000000000000000000000
#0103b0:00230000
#010320:0000000000000013
#011350:00530000000000000000000000000000
#011320:00230000
#0113b0:0000000000000013
#012380:00530000000000000000000000000000
#0123b0:00230000
#013350:00000013000023000000000000000000
#013380:00000000000000000000001300002300
#014350:00000013000023000000000000000000
#014380:00000000000000000000001300002300
#0153b0:13
#015380:0000002300000000
#015321:13
#015351:0000002300000000
#015381:0013
#0153b1:0000000000000023
#015350:0013
#015320:0000000000000023
#0163b0:0000001300000000
#016380:0000000000230000
#016321:0000001300000000
#016351:0000000000230000
#017351:1300002300000000
#017321:00000053000000000000000000000000
#017381:0000000013000023
#0173b1:00000000000000000000005300000000
#018351:00130023
#018321:0033
#018380:0013
#0183b0:00000023
#019320:13
#019350:00230000
#0193b0:0000001300000000
#019380:0000000000230000
#019321:0000000000130000
#019351:0000000000000023
#019380:0000000000000013
#0203b0:0053000000000000
#020380:0000002300000000
#021320:13
#021350:0000002300000000
#021380:0013
#0213b0:0000000000000023
#022390:13332300
#022370:0053000000000000
#0223b0:0000005300000000
#022341:00133323
#022321:0000005300000000
#022361:0000000000530000
#022390:00000013
#022370:0000000000000053
#023390:23
#023321:13000023
#023361:0000005300000000
#0233b0:0000001300000000
#023370:00000023
#024320:1323000000000000
#024381:0013230000000000
#024350:0000132300000000
#025380:1300002300000000
#0253b0:00000053000000000000000000000000
#025350:0000000013000023
#025320:00000000000000000000005300000000
#026380:00130023
#0263b0:0033
#026351:0013
#026321:00000023
#0273b1:13
#027381:00230000
#027321:0000001300000000
#027351:0000000000230000
#0273b0:0000000000130000
#027380:0000000000000023
#027351:0000000000000013
#028321:0053000000000000
#028351:0000002300000000
#030321:13
#030351:00230000
#0303b1:0000001300000000
#030381:0000000000230000
#030351:0000000000000013
#031321:0000005300000000
#031351:0000000000000023
#033381:0000000000000013
#0343b1:0023000000000000
#036321:0000001300000000
#036351:00000023
#0363b0:0000001300000000
#036380:00000023
#037350:0000001300230000
#037320:0053
#037380:0000000000000013
#0383b0:53
#038380:0023000000000000
#038350:0000001300000000
#038320:00000023
#0383b1:00000013
#039371:23
#039320:13
#039360:0000002300000000
#0393b0:0013
#039370:00000000000000000000000000000053
#0403b0:0000002300000000
#041380:13
#0413b0:0023
#041351:13
#041321:0023
#0433b1:0000000000000013
#044381:00230000
#0443b1:0000000000000013
#045381:0023000000000000
#045381:0000000000000013
#0463b1:00230000
#047321:13
#047351:00230000
#047381:0000001300230000
#0473b1:0053
#047350:0000000000130023
#047320:00000053
#0493b0:13
#049380:00230000
#051320:0000000000000013
#052350:00230000
#054350:13
#054320:0023
#055320:13000023000000000000000000000000
#055381:00000013000023000000000000000000
#0553b1:00000000000000001300002300000000
#055350:00000000000000000000001300002300
#056320:13
#056350:00000023000000000000000000000000
#056381:00000013000000000000000000000000
#0563b1:0000002300000000
#0563b1:0013
#056381:00000000000000000000002300000000
#056350:00000000000000000000001300000000
#056320:0000000000000023
#057320:13
#057350:0000002300000000
#0573b1:13
#057381:0000002300000000
#057351:0013
#057321:0000000000000023
#057380:0013
#0573b0:0000000000000023
#059320:13
#059360:0000000000003333
#060320:00230000
#0593b1:0000000000000013
#060371:00230000
#061361:0000000000000012
#062361:00220000
#064381:16
#0683b1:00000023
#064320:16
#068320:00000023
