This file was generated by Ched 2.7.0.0.
#TITLE ""
#ARTIST ""
#DESIGNER ""
#DIFFICULTY 0
#PLAYLEVEL
#SONGID ""
#WAVE ""
#WAVEOFFSET 0
#JACKET ""
#REQUEST "ticks_per_beat 480"
#00002: 4
#BPM01: 152
#00008: 01
#TIL00: ""
#HISPEED 00
#MEASUREHS 00
#0011b:1313
#00115:0000000000130000
#00118:00000013
#00112:0000130000000013
#00015:0013
#00018:00000013
#0021b:0000130000000013
#00212:0013
#00218:0000000000130000
#00215:00000013
#00412:00130000
#00415:0013
#00418:00000013
#0051b:1313
#00518:0000000000130000
#00515:00130013
#00512:0000000000000013
#00618:00130013
#00612:0013
#00615:0000000000130000
#0061b:0000000000000013
#00915:0000130000130000
#00912:0013
#00918:00000013
#0091b:0000130000000013
#00916:24
#00910:41
#01112:0013
#01115:00130000000000000000130000000000
#01118:00000013
#0111b:0000000000000013
#01218:00130000000000001300000000000000
#01212:0013
#01215:00000013
#0121b:00000013
#01512:1400001313000000
#0151b:0000001313000000
#0151a:14
#01618:0000000000000013
#01612:23
#0161b:23
#01812:13
#01818:0013000013000000
#01815:0000130000000013
#01918:1300000000000013
#01912:0000000000000013
#01915:0000001300000000
#02012:0000001300000000
#02015:0013
#02018:0000000000130000
#0201b:00000013
#02915:13000013
#02918:0000001313000000
#0291b:13000013
#02912:0000001313000000
#03012:13000013
#03018:00130000
#03015:0013001300000013
#0301b:0000001300001313
#03212:0000001300001300
#03215:0013
#03218:0000000000130000
#0321b:0000001300001300
#0331b:00231300
#03315:0000000000130000
#03318:00000013
#03312:0000230000000013
#03310:41
#03618:00130000
#0361b:0000001300000000
#03615:0013000000000000
#03612:13
#03718:0013000000000000
#03715:00130000
#0371b:0000001300000000
#03712:1300000000001313
#0371f:11
#03912:13
#0391b:0013
#03917:00000000000000000000000000000013
#04318:2400000000130000
#0431b:0000000000000013
#04312:2413
#04315:00000013
#0431f:21
#04412:0000001300000013
#04418:00001313
#04415:0000000000130000
#04410:41
#0451b:00130013
#04515:0000001300130013
#04518:0013
#04616:0013
#04612:00000013
#0461b:0013
#04617:00000013
#04718:0000000000000013
#0471b:13
#04712:0000001300000000
#04815:0013000000001300
#04818:0000130000000013
#04812:1313
#0481b:0000001300000000
#05418:00000013
#05415:1300000000000013
#05818:0000000013000013
#0581b:23000000000000000000001300000000
#05815:00000000000013000000001300000000
#05812:2300000000000013
#01712:00000013000000000000000000000000
#01715:13
#0171b:00000000000000000000001300000000
#01718:0013
#01710:41
#02112:13
#02118:0013
#02214:13130013
#02213:0013000000000000
#02215:0000001300000000
#02219:13130013
#02218:0013000000000000
#0221a:0000001300000000
#02318:13
#0231b:0000001300000000
#02312:13
#02315:0000001300000000
#02412:1300001300130000
#0241b:0000001300130000
#02415:0013000000000013
#02418:00130000
#03112:0000001300000000
#03118:0000001300000000
#0341b:0000001300001300
#03418:0013
#03415:0000000000130000
#03412:0000001300001300
#03512:00231300
#03518:0000000000130000
#03515:00000013
#0351b:0000230000000013
#0381b:00130013
#03815:0000001300001300
#04215:0013000000002300
#04218:00132300
#04212:0023
#0421b:00000023
#04115:13000013
#0411b:0000000000130000
#04118:0000000000000013
#0491b:1300000000230000
#04916:0000002400240024
#04912:0000002300000023
#04012:0013
#04018:0000000000130000
#04015:00000013
#0401b:0000000000000013
#00312:0000130000000013
#0031b:0013
#00315:0000000000130000
#00318:00000013
#00812:00000000000000001434343434343434
#00813:2424000000000000
#00819:2424000000000000
#01018:00130000000000000000130000000000
#0101b:0013
#01015:00000013
#01012:0000000000000013
#0261b:13
#02615:1313
#02618:0000130000000013
#02612:00130000
#0251b:00000013000000000000000000000000
#02518:13
#02512:00000000000000000000001300000000
#02515:0013
#02510:41
#02715:1300000000000013
#02718:0000001300000000
#0271b:0000000000000013
#0281b:0000001300000000
#02818:0013
#02815:0000000000130000
#02812:00000013
#05018:0014000000002300
#05014:00140000
#0501b:0023
#05012:00000023
#05015:0023
#05115:0000000000130000
#05112:0000000000000013
#0511b:0013
#05118:00000013
#0511a:24
#05114:24
#0521b:0000001300000013
#05215:00001313
#05218:0000000000130000
#05312:00130013
#05318:0000001300130000
#05315:0013
#0531b:0000000000000013
#01312:14
#01318:00000014000000000000000000001400
#01314:00000000000014000000001400000000
#0131a:0014
#0551a:1400000000000014
#05516:00000014000000000000001400000000
#05512:0000001414000000
#05510:41
#0561a:1400000000000014
#05616:00000014000000000000001400000000
#05612:0000001414000000
#01412:14
#01418:00000014000000000000000000001400
#01414:00000000000014000000001400000000
#0141a:0014
#05712:1400001313000000
#0571a:14
#0571b:0000001313000000
#06012:0013
#06017:0013
#06014:00000013
#06019:00000013
#06116:13
#0611b:1300000000000013
#06112:00131300
#06118:00130013
#06115:0000000000130000
#06212:0000130000000023
#06218:0000130000130000
#0621b:0000000013000023
#06215:00000013
#06318:0016
#06316:000016
#06314:000000000016
#0065b:0000000000000053
#0115b:0000000000000053
#01155:00230000000000000000000000000000
#01258:00230000000000000000000000000000
#01755:53
#01758:0053
#01752:00000023000000000000000000000000
#0175b:00000000000000000000002300000000
#01858:0053
#01958:5300000000000053
#01952:0000000000000053
#01955:0000006300000000
#00152:0000000000000013
#0015b:13
#00552:0000000000000013
#0055b:13
#00956:14
#0095b:0000000000000053
#02152:53
#02158:0053
#02254:53530000
#02253:0023000000000000
#02255:0000002300000000
#02259:53530000
#02258:0023000000000000
#0225a:0000002300000000
#02358:53
#0235b:0000002300000000
#02352:53
#02355:0000002300000000
#03055:0000005300000053
#0305b:0000005300000053
#03152:0000002300000000
#03158:0000002300000000
#03352:0000130000000053
#0335b:00130000
#0365b:0000005300000000
#0375b:0000005300000000
#03752:0000000000000063
#03952:53
#0395b:0053
#03957:00000000000000000000000000000023
#04155:63
#04352:14
#04358:14
#0435b:0000000000000053
#04452:0000000000000063
#04555:0000000000000063
#0495b:53
#03552:00130000
#0355b:00130000
#0025b:0000000000000013
#00352:0000000000000013
#00852:0054
#01058:00230000000000000000000000000000
#01052:0000000000000063
#01552:0053
#0155b:0053
#02655:0063
#0255b:00000023000000000000000000000000
#02558:63
#02552:00000000000000000000002300000000
#02555:0063
#02755:6300000000000063
#02758:0000005300000000
#0275b:0000000000000063
#04255:0013000000000000
#04258:00130000
#0475b:63
#04752:0000005300000000
#05152:0000000000000063
#0515a:14
#05154:14
#0525b:0000000000000053
#05455:53
#01352:14
#0135a:0014
#0555a:14
#05552:0014
#0565a:14
#05652:0014
#01452:14
#0145a:0014
#0575b:0063
#05752:0063
#0063b0:0000000000000013
#007380:00000023
#008320:00000000000000001434343434343434
#009360:24
#0093b0:0000000000000013
#010380:00530000000000000000000000000000
#0103b0:00230000
#010320:0000000000000013
#011350:00530000000000000000000000000000
#011320:00230000
#0113b0:0000000000000013
#012380:00530000000000000000000000000000
#0123b0:00230000
#0153b0:0013
#015380:0000000000000023
#015321:0013
#015351:0000000000000023
#017351:1300002300000000
#017321:00000053000000000000000000000000
#017381:0000000013000023
#0173b1:00000000000000000000005300000000
#018381:0013
#0183b1:00000023
#019381:13
#0193b1:00230000
#019351:0000001300000000
#019321:0000000000230000
#019321:0000000000000013
#020351:0023000000000000
#019380:0000000000000013
#0203b0:0023000000000000
#021320:13
#021350:0000002300000000
#021380:0013
#0213b0:0000000000000023
#022340:13332300
#022330:0053000000000000
#022350:0000005300000000
#022391:13332300
#022381:0053000000000000
#0223a1:0000005300000000
#023381:13000023
#0233b1:0000005300000000
#023320:13000023
#023350:0000005300000000
#025380:1300002300000000
#0253b0:00000053000000000000000000000000
#025350:0000000013000023
#025320:00000000000000000000005300000000
#026350:0013
#026320:00000023
#027350:13
#027320:00230000
#027380:0000001300000000
#0273b0:0000000000230000
#0273b0:0000000000000013
#028380:0023000000000000
#027351:0000000000000013
#028321:0023000000000000
#030351:0000001300000000
#030321:0000000000230000
#0303b0:0000001300000000
#030380:0000000000230000
#030350:0000000000000013
#031320:0000005300000000
#031350:0000000000000023
#0303b1:0000000000000013
#031381:0000005300000000
#0313b1:0000000000000023
#033321:0000000000000013
#034351:0023000000000000
#0363b1:0000001300000000
#036381:00000023
#0373b1:0000001300000000
#037381:0000000000230000
#037321:0000000000000013
#038351:0023000000000000
#039321:13
#039361:0000002300000000
#0393b1:0013
#039371:00000000000000000000000000000053
#0403b1:0000002300000000
#041351:13
#041321:0023
#0433b1:0000000000000013
#044381:00230000
#044321:0000000000000013
#045351:0023000000000000
#045351:0000000000000013
#046321:00230000
#0473b1:13
#047381:00230000
#047321:0000001300000000
#047351:0000000000230000
#0493b1:13
#049381:00230000
#051321:0000000000000013
#052351:00230000
#0523b1:0000000000000013
#053381:0023000000000000
#054351:13
#054321:0000000000230000
#057321:0013
#057351:0000000000000023
#0573b0:0013
#057380:0000000000000023
#059350:13
#059320:0000000000003333
#060350:00230000
#0593b1:13
#059381:0000000000003333
#0603b1:00230000
#064321:16
#068321:00000023
