This file was generated by Ched 2.7.0.0.
#TITLE ""
#ARTIST ""
#DESIGNER ""
#DIFFICULTY 0
#PLAYLEVEL
#SONGID ""
#WAVE ""
#WAVEOFFSET 0
#JACKET ""
#REQUEST "ticks_per_beat 480"
#00002: 4
#BPM01: 152
#00008: 01
#TIL00: ""
#HISPEED 00
#MEASUREHS 00
#00112:13
#00113:0013
#00115:0000130000130000
#00117:00000013
#0011b:0000000000000013
#0001b:0013
#00014:00000013
#00016:0013
#00019:00000013
#00217:00130000
#0021b:0013
#00216:0000000000130000
#00218:00000013
#00212:0000000000000013
#00312:0000130000000013
#0031a:0000000000130000
#00319:00000013
#00318:0000000000000013
#0041b:00130000
#00417:0013
#00414:00000013
#00419:00000013
#0061b:0000000000000013
#00616:00130000
#00612:0000000013000013
#00617:0000000000130000
#00615:00000013
#00918:00001300000013000000000000130000
#00915:00000013000000130000000013000000
#0091b:2300130013000013
#00912:23000000001300001300130000001300
#00916:0000000000140000
#00910:41
#01215:00000000000000000000130000000013
#01212:1300000013001313
#0121b:00000013000000001300130013000000
#01218:1313000000000013
#01216:00130000
#01214:0000001300000000
#01217:00000000000000130000000000000000
#01219:00000000001300000000000000000000
#01318:16000013000013000000130000000000
#01312:0000001316000000
#01315:00001300000000000000001300001300
#0131b:0000000013000013
#01418:1600001300130000
#01412:13000000000013001600001300000000
#0141b:00000013000000001300000000001300
#01415:0013000000000013
#0181b:13131300
#01818:0013000000000000
#01812:13130000
#01816:0013
#01819:0000001300000013
#01815:0013000000000000
#01912:1300000013130000
#01917:00130000
#01916:0013001300000000
#0191b:1300001300001313
#01919:0013000000000000
#02016:0013001300000000
#02018:00001313
#02015:0000000000130013
#02012:13130013
#02113:0013000013000000
#02112:1300001300130013
#0211b:13
#02116:0013
#02215:13
#02219:00000014
#02217:0000000000000014
#0221a:12120000
#02218:0012000000000000
#0221c:0000001200000000
#02214:00131300
#02212:0013001300000013
#02216:0000000000130000
#0221b:0000000000130000
#02915:13
#02913:0013
#02914:00000013
#0291b:1300001313000000
#02918:0000130000000013
#02916:0014000000000000
#02912:00130000
#03015:1300130013000013
#0301b:0000001300001300
#03012:0000001300001300
#03018:1300000000000013
#03212:00000000000013000013000000000000
#0321b:0013001300001300
#03218:00000000130000001300001300000000
#03215:00000000001300000000130000000013
#03219:0000000000000013
#03217:00000000000000000000000000130000
#03317:1313
#03314:0000000000130013
#0331b:00000013
#03318:0000000000000013
#03312:13241300
#03316:00000013
#0331a:00240000
#03310:41
#03414:0013000000000013
#03412:1300001300001300
#0341b:00000000000013000013000000000000
#03415:00000000000000001300001300000000
#03416:00000000130000000000000000130000
#03418:00000000000000000000130000000013
#03618:000000130000240000001400
#03615:0013000000000000
#03612:1300001300000000
#0361b:1300001300000000
#03614:000000142824
#0381b:00000013
#03815:0013001300000000
#03818:0000001300000000
#0381a:0013000000130000
#03814:0000000000000013
#03812:23130000
#03819:00232300
#0391b:0000131323000023
#03912:1300000023000023
#03916:0000000000141400
#04118:1200000000000012
#0411c:0000000000120000
#0411a:00000012
#04116:1200000000000012
#04112:0000000000120000
#04114:00000012
#04318:00131300
#04319:0000000000130000
#0431a:24000013
#0431b:0000001300000013
#04315:00130000
#04312:2400001312000000
#04314:0000000000120012
#04316:00000012
#0431f:21
#0441b:0000001300000013
#04419:00001313
#04417:00130000000000000000130000000000
#04414:0012001200120012
#04416:00000012
#04412:12121200
#04410:41
#0451b:00130013
#04519:0000001300130000
#04518:0000000000000013
#04517:0013
#04516:0012001200001200
#04514:0000000000120012
#04512:12121200
#04617:00000000000000000013000000000000
#04619:00000000000000000000001300000000
#04612:12121300
#04614:0000000000130000
#04616:0012000000001300
#04615:0000000000000013
#04618:00000000000000000000000000000013
#0461b:00000000000000000000000000130000
#0471b:13131313
#04715:0000000000130000
#04712:13001313
#04714:0000001300000000
#04719:0013000000130000
#04718:00000000000000130000000000000013
#04816:00001414
#04818:00001300000000000000000000130000
#0481b:13130000
#04815:13
#04812:00001300001300000000140000000000
#04819:0000001300000000
#04814:00000000000000130000000000001300
#0481a:00000000000000000000140000000013
#04912:1300002600000023
#04915:0000130016231626
#0491b:13
#04918:0000002300260000
#05518:1600001300000013
#05515:0000001300000013
#05512:1300000016130000
#0551b:0013000013000000
#05510:41
#05817:0000001300000013
#0581b:0013
#05819:00000000000000000000001300000000
#05812:2c00001300000013
#05814:00000000000000000000001300000000
#05816:0013
#0591b:13001313
#05917:0000000000000013
#05918:00000000130000130000130000000000
#05912:1300000000000013
#05915:0000131300000000
#05916:00000013
#06012:0012
#06015:00000012
#06017:0012
#06019:00000012
#06117:12120000
#06112:0012
#06115:0000000000120000
#06118:00000012
#0611b:0000000000000012
#0611c:12
#06116:0000000000000012
#0621b:00120000
#0621c:0012
#06219:0000000000120000
#06216:00000012
#06212:00120000000000000000000000002400
#06218:00000000000000000000000000120000
#0621a:0000000000000024
#01716:1300130000000013
#01714:00130013001300000000000000000000
#01712:0013000013000000
#0171b:1300000000130000
#01717:0000001313001300
#01719:00000000000000000013001300130000
#01710:41
#02312:13
#02318:0000001300000013
#0231b:00000013
#02315:00000000000000000000000000000013
#02412:1300000000131300
#0241b:0000001300131300
#02415:00001300000013000000000000000013
#02418:1300130000000013
#02818:00001313
#02815:0000000000130000
#02812:00000013
#02817:0013001300000000
#0281b:13130000
#02816:0000000000000014
#0311b:0000001300000000
#03112:1300130000131300
#03114:0000001300000000
#03116:0013
#03115:0000000000000013
#03512:00241313
#03515:0000000000130000
#0351b:13001313
#03516:1300000000000014
#03518:00000000000000000013001300000000
#0351a:00240000
#04214:0012000000140000
#0421a:00120000
#04217:0012120000000000
#04218:0000000000000014
#04216:00002424
#04212:0023
#0421b:00000023
#05012:0014160000002300
#0501a:0014000000000000
#05018:0000160000140000
#05014:0000000000000014
#05016:00002424
#0501b:0023
#05618:16000013000013000000000000001300
#05615:00000000000013000000001300001300
#05612:1300000016130000
#0561b:0013000013000000
#0051b:13
#0051a:0013
#00518:0000130000130000
#00516:00000013
#00512:0000000000000013
#00812:2424000013000000
#00816:00000000000000000013000000000000
#00813:0000000000130000
#00817:00000000000000000000001300000000
#00814:00000013
#00818:00000000000000000000000000130000
#00815:0000000000000013
#00819:00000000000000000000000000000013
#0081a:2424000000000000
#01018:13000013000000130000000013000000
#01012:1300130013000013
#01015:00001300000013000000000000130000
#0101b:00000000001300001300130000001300
#01016:0000000000140000
#01115:1313000000001300
#0111b:1300000013000013
#01112:00000013000000001300130000001300
#01117:00130000
#01119:0000001300000000
#01116:00000000000000130000140000000000
#01118:00000000000000000000000000130000
#01114:00000000001300000000000000000000
#01512:1313
#0151b:1313
#01518:0000000000131415
#01515:00000000000000000000001300000000
#01514:00000000000000000000000000140000
#01513:00000000000000000000000000000015
#01617:0000001300000000
#01612:2c00000000000013
#02612:13131300
#02615:0013000000000000
#0261b:13130000
#02617:0013
#02614:0000001300000013
#02618:0013000000000000
#0271b:1300000013130000
#02716:00130000
#02717:0013001300000000
#02712:1300001300001313
#02714:0013000000000000
#02517:1300130000000013
#02519:00130013001300000000000000000000
#0251b:0013000013001300
#02512:1300130000130000
#02516:0000001313001300
#02514:00000000000000000013001300130000
#02510:41
#04012:0000000023000000000000000015000000000000000000000000000000000000
#04018:0000000000000000000000000000000000150000000000000000000000000000
#04013:0000000000000000000000002300130000000000001500000000000000000000
#04019:0000000000000000000000000000000023001300000000000015000000000000
#04014:00000000000000000000231300000000
#0401a:00000000000000000000000023130000
#04016:14140000
#0401b:0023000000000000
#05115:00131300
#05114:0000000000130000
#05113:00000013
#05112:2400001300000013
#05118:00130012
#0511b:0000001300000000
#0511a:2400000000120012
#0511c:0012
#05212:0000001300000013
#05214:00001313
#05216:00130000000000000000130000000000
#0521a:0012001200120012
#05218:00000012
#0521c:12121200
#05312:00130013
#05314:0013001300130013
#05316:0013
#05318:0012001200001200
#0531a:0000000000120012
#0531c:12121200
#05416:13000000000000000013000000000000
#05415:0000001300000013
#05418:00001200000000130000000000000013
#0541b:0013
#05419:0000000000130000
#05414:00000000000000000000001300000000
#05417:00000013
#05412:00000000000000000000000000130000
#0541c:12120000
#0571b:13
#05712:13
#05718:00000000000000000012001300140015
#05716:0012
#05715:0000000000130000
#05714:00000014
#05713:0000000000000015
#0631a:0014
#06316:000000131400
#06312:000000001314
#06317:000000000013
#06412:16
#03713:0013000000130000
#03715:0000001300000013
#03718:0013000000001313
#0371b:13130000
#0371f:11
#03712:23000023
#03714:00232300
#0065b:0000000000000053
#00652:0000000000000063
#01754:00530053005300000000000000000000
#01756:23230000
#01752:0023000000000000
#01757:00002323
#01759:00000000000000000063006300630000
#0175b:0000000000230000
#01852:00530000
#01856:0053
#0185b:0053
#01952:5300000000530000
#0195b:0000005300000053
#01956:0023000000000000
#0015b:0000000000000013
#00152:13
#00252:0000000000000013
#00352:0000000000000013
#00358:0000000000000013
#0095b:13
#00952:1300000000000013
#01358:16
#01352:0016
#01458:16
#01452:0016
#0215b:63
#02156:0023
#0225a:52520000
#02258:0022000000000000
#0225c:0000002200000000
#02254:00535300
#02252:0000002300000000
#02256:0000000000230000
#02259:00000054
#02257:0000000000000024
#02352:53
#02358:0000002300000000
#03058:6300000000000063
#0305b:0000005300000000
#0315b:0000002300000000
#03155:0000000000000053
#03358:0000000000000053
#0335a:00140000
#03352:00140000
#03855:0000005300000000
#0385b:00000053
#03952:53
#04254:0032000000000000
#0425a:00420000
#04252:0033
#0425b:00000043
#04158:52
#04156:62
#0435b:0000000000000053
#04352:34
#0435a:44
#0445b:0000000000000053
#04457:00230000000000000000000000000000
#04558:0000000000000053
#04752:53000023
#04755:0000000000530000
#0495b:53
#04958:0000001300000000
#04955:0000000000130016
#05558:16
#05552:5316
#0555b:0063
#05658:16000053000000000000000000000000
#05652:5316
#05655:00000000000000000000006300000000
#0565b:0063
#05957:0000000000000063
#05952:0000000000000063
#00552:0000000000000013
#0055b:13
#0085a:14
#00852:0014000000000000
#01552:53
#0155b:53
#02056:0023000000000000
#0265b:00630000
#02657:0063
#02652:0063
#0275b:6300000000630000
#02752:0000006300000063
#02757:0023000000000000
#02557:23230000
#02559:00630063006300000000000000000000
#0255b:0023000000000000
#02556:00002323
#02554:00000000000000000053005300530000
#02552:0000000000230000
#02857:0023000000000000
#0295b:0053
#03552:00140000
#0355a:00140000
#04053:0000000000000000000000005300530000000000002500000000000000000000
#04052:0000000000000000000000000025000000000000000000000000000000000000
#04058:0000000000000000000000000000000000250000000000000000000000000000
#04059:0000000000000000000000000000000063005300000000000025000000000000
#04054:00000000000000000000535300000000
#0405a:00000000000000000000000063530000
#05152:3400000000000063
#0515a:44
#05256:00230000000000000000000000000000
#05252:0000000000000053
#05456:53
#0575b:63
#05752:63
#06157:52
#06156:0000000000000052
#06252:00220000000000000000000000000000
#03758:0000000000000053
#0105b:0000000000000013
#01152:0000000000000013
#05052:0034360000003300
#0505a:0044000000000000
#05058:00460000
#0505b:0043
#03658:0014
#03654:000000001814
#01652:1c
#05852:1c
#0013b0:13000023
#001320:0000000000000013
#002320:00000023
#0023b0:0000000000000013
#0033b0:0023
#003351:00001323
#004351:0013003300000000
#004321:00332300
#005321:13000023
#0053b1:0000000000000013
#0063b1:00000023
#0063b1:0000000000000013
#007351:00000023
#006320:0000000000000013
#007380:00000023
#013350:00000013002300000000000000000000
#013380:00000000000000000000001300230000
#014350:00000013002300000000000000000000
#014380:00000000000000000000001300230000
#015320:13
#015380:0000002300000000
#0153b1:13
#015351:0000002300000000
#016321:00000000000013540000000000000000
#016331:0000000000000000000000000054000054000000000000000000000000000000
#016341:0000000000000000000000000000005400005400000000000000000000000000
#016351:0000000000000000000000000000000000540000000000000000000000000000
#016361:0000000000000000000000000000000000000054230000000000000000000000
#0163b0:0000000000130000
#016390:0000000000000000000000000000000000000000005400005400000000000000
#0163a0:00000000000000000000005400000000
#016380:0000000000000000000000000000000000000000000000540000540000000000
#016370:0000000000000000000000000000000000000000000000000054000023000000
#016360:0000000000000000000000000000000000000000000000000000005400000000
#017360:13530000
#017340:00530053005300000000000000000000
#017320:0053002300000000
#017370:00001353
#017390:00000000000000000053005300530000
#0173b0:0000000000530023
#018320:00130023
#018360:0033
#0183b1:0013
#018371:00000023
#019321:13230000
#019361:0053000000000000
#0193b1:0000001300000000
#019371:0000000000230000
#019320:0000000000130000
#019360:0000000000000023
#0193b1:0000000000000013
#020361:0053000000000000
#0203b1:0000002300000000
#0213b1:13
#021361:0000002300000000
#021361:0013
#0213b1:0000000000000023
#0223a1:12322200
#022381:0052000000000000
#0223c1:0000005200000000
#022340:00133323
#022320:0000005300000000
#022360:0000000000530000
#022391:00000014
#022371:0000000000000054
#023391:24
#023320:13000023
#023380:0000005300000000
#025370:13530000
#025390:00530053005300000000000000000000
#0253b0:0053002300000000
#025360:00001353
#025340:00000000000000000053005300530000
#025320:0000000000530023
#0263b0:00130023
#026370:0033
#026321:0013
#026361:00000023
#0273b1:13230000
#027371:0053000000000000
#027321:0000001300000000
#027361:0000000000230000
#0273b0:0000000000130000
#027370:0000000000000023
#027321:0000000000000013
#028371:0053000000000000
#028321:0000002300000000
#0293b1:0013
#029381:00000023
#030381:13
#0303b1:00230000
#0303b1:0000001300000000
#030381:0000000000230000
#030381:0000000000000013
#0313b1:0000005300000000
#031381:0000000000000023
#031350:0000000000000013
#032320:0023000000000000
#033380:0000000000000013
#0343b0:0023000000000000
#037380:0000001300000000
#0373b0:0000000000230000
#037380:0000000000000013
#0383b0:23
#038350:0000001300000000
#038320:00000023
#0383b1:00000013
#039371:23
#039320:13
#039360:0000002300000000
#040330:00000000000013530000000000000000
#040320:0000000000000000000000000055000000000000000000000000000000000000
#040340:0021
#040391:00000000000000001353000000000000
#040381:0000000000000000000000000000000000550000000000000000000000000000
#0403a1:0000000000210000
#040340:00000000000000000000135300000000
#040330:0000000000000000000000000000000000000000005500000000000000000000
#040350:00000021
#0403a1:00000000000000000000000013530000
#040391:0000000000000000000000000000000000000000000000000055000000000000
#0403b1:0000000000000021
#041381:12
#0413c1:0022
#041360:12
#041320:0022
#0433b0:0000000000000013
#044370:00530000000000000000000000000000
#0443b0:00230000
#0443b0:0000000000000013
#045380:0023000000000000
#045380:0000000000000013
#0463b0:00230000
#047320:13
#047360:00230000
#047350:0000000000130023
#047320:00000053
#0493b0:13
#049380:00230000
#051320:0000000000000013
#052360:00530000000000000000000000000000
#052320:00230000
#052320:0000000000000013
#053360:23
#054360:13
#054320:00230000
#055320:13
#055350:00000023000000000000000000000000
#055381:00000013002300000000000000000000
#0553b1:0013
#055381:00000000000000000000002300000000
#055350:00000000000000000000001300230000
#056320:13
#056350:00000023000000000000000000000000
#056381:00000013000000000000000000000000
#0563b1:00000000002300000000000000000000
#0563b1:0013
#056381:00000000000000000000002300000000
#056350:00000000000000000000001300000000
#056320:00000000000000000000000000230000
#0573b0:13
#057350:0000002300000000
#057321:13
#057381:0000002300000000
#059371:0000000000000013
#0603b1:00230000
#059320:0000000000000013
#060360:00230000
#061370:12
#061320:00220000
#061360:0000000000000012
#062320:00520000000000000000000000000000
#062360:00220000
#064380:16
#068320:00000022
