This file was generated by Ched 2.7.0.0.
#TITLE ""
#ARTIST ""
#DESIGNER ""
#DIFFICULTY 0
#PLAYLEVEL
#SONGID ""
#WAVE ""
#WAVEOFFSET 0
#JACKET ""
#REQUEST "ticks_per_beat 480"
#00002: 4
#BPM01: 152
#00008: 01
#TIL00: ""
#HISPEED 00
#MEASUREHS 00
#0011a:14
#00114:00140000
#00118:0000000000343400
#00218:00140000
#00214:0000000000343400
#00314:00140000
#00318:0000000000343400
#00412:00140000
#00418:0014
#00414:00000014
#0051a:14
#00514:00140000
#00518:0000000000343400
#00618:00140000
#00614:0000000000343400
#0091a:1414
#00914:00140014
#00910:41
#01018:1414
#01012:00140014
#0111a:14
#01114:00140000
#01118:0014
#01112:00000014
#01218:14
#01214:00140000
#0121a:0014
#01512:14
#01518:14
#0151a:0000003434000000
#01514:0000003434000000
#0171a:1414
#01714:00140000
#01710:41
#01812:1414
#01818:00140000
#0191a:1414
#01914:00140000
#01912:00000014
#02018:14
#02012:00140000
#0201a:0014
#02512:1414
#02518:00140000
#02510:41
#0261a:1414
#02614:00140000
#02712:1414
#02718:00140000
#0271a:00000014
#02814:14
#0281a:00140000
#02812:0014
#03219:0014
#03213:00000014
#0331a:00140000
#03314:0014
#03318:00000014
#03310:41
#03412:14
#0341a:00140000
#03413:0014
#03419:00000014
#03512:00140000
#03518:0014
#03514:00000014
#0361a:14
#03612:00140000
#03712:14140000
#03718:00001414
#0371f:11
#03814:14140000
#0381a:00001414
#04318:0000140000140000
#04314:00001414
#0431a:24
#04312:24
#0431f:21
#0441a:14
#04414:0000140000140000
#04418:00001414
#04410:41
#04512:14140000
#0451a:00001414
#04614:1400140000140000
#04618:0014000014001400
#04712:14
#04714:00140000
#0481a:14
#04818:00140000
#04912:1400003400000034
#04915:0000000000140000
#0531a:14140000
#05312:00001414
#05418:1400140000140000
#05414:0014000014001400
#0551a:14
#05518:00140000
#05510:41
#05612:14
#05614:00140000
#0571a:14
#05717:0014
#06112:14
#06118:00140000
#06114:0000000000343400
#06214:00140000
#06218:0000000000343400
#05114:0000140000140000
#05118:00001414
#05112:24
#0511a:24
#05212:14
#05218:0000140000140000
#05214:00001414
#02312:14
#0311a:14
#00818:24
#00814:0024000000000000
#01312:24
#01318:24
#0131a:0024
#01314:0024
#01412:24
#01418:24
#0141a:0024
#01414:0024
#04218:0024
#04214:00000024
#05014:0024
#05018:00000024
#06312:000000000034
#06313:000034
#01558:54
#01552:54
#0165a:14
#01654:14
#04752:54
#04754:00240000
#0485a:64
#04858:00240000
#04952:54
#04955:0000000000240000
#0555a:64
#05558:00240000
#05652:54
#05654:00240000
#0575a:54
#05757:0024
#04352:14
#0435a:14
#05152:14
#0515a:14
#02455:14
#02352:54
#0315a:64
#03257:14
#001380:0000000014343400
#0013a0:0000000000000024
#002340:0000000014343400
#002320:0000000000000024
#003380:0000000014343400
#0033a0:0000000000000024
#005380:0000000014343400
#0053a0:0000000000000024
#006340:0000000014343400
#006320:0000000000000034
#007320:00000024
#015320:14
#015340:0000003434000000
#016340:24
#015381:14
#0153a1:0000003434000000
#0163a1:24
#021321:14
#021341:0024
#0223a1:14
#022381:0024
#023321:14
#024351:24
#0293a1:14
#029381:0024
#030321:14
#030341:0024
#0313a1:14
#032371:24
#036391:00001424
#039341:14
#039321:0024
#040381:14
#0403a1:0024
#041321:14
#042341:24
#041380:14
#0423a0:24
#047320:1424
#047340:00540000
#0483a0:1424
#048380:00540000
#049320:1400003400000034
#049350:0000000000340000
#050320:00240000
#0553a0:1424
#055380:00540000
#056320:1424
#056340:00540000
#0573a0:14
#057370:0054
#0583a0:24
#059380:14
#0593a0:0000000000003434
#060380:0024
#059321:14
#059341:0000000000003434
#060321:0024
#061341:0000000014343400
#061321:0000000000000024
#062381:0000000014343400
#0623a1:0000000000000024
#063341:0014
#063331:000034
#063321:000000000034
#064321:34
#068321:00000024
