This file was generated by Ched 2.7.0.0.
#TITLE ""
#ARTIST ""
#DESIGNER ""
#DIFFICULTY 0
#PLAYLEVEL
#SONGID ""
#WAVE ""
#WAVEOFFSET 0
#JACKET ""
#REQUEST "ticks_per_beat 480"
#00002: 4
#BPM01: 108
#00008: 01
#TIL00: ""
#HISPEED 00
#MEASUREHS 00
#00119:14
#02912:0016
#02918:26
#0291f:21
#03018:16
#03012:0016
#03010:41
#00213:14
#00319:14
#00413:14
#0051a:14
#00614:14
#00718:14
#00812:14
#03118:16
#03112:0016
#03312:16
#03318:0016
#03412:16
#03418:0016
#03518:0016
#03512:16
#03718:16
#03712:0016
#04212:1616
#03912:16
#03918:0016
#0461a:14
#04610:41
#0171a:14
#01812:14
#01918:14
#02014:14
#0211a:14
#02212:14
#02318:14
#02310:41
#02414:14
#04118:1616
#04914:14
#0501a:14
#05112:14
#04514:14
#04712:14
#04818:14
#0091a:14
#00910:41
#0101a:14
#01114:14
#01214:14
#01318:14
#01418:14
#01512:14
#01510:41
#01612:14
#0251f:11
#04010:41
#025390:14
#026390:24
#027330:14
#028330:24
#032380:1626
#036320:1626
#038380:1626
#040320:1626
#043380:16363636
#044380:26
#052380:14000024
