This file was generated by Ched 2.7.0.0.
#TITLE ""
#ARTIST ""
#DESIGNER ""
#DIFFICULTY 0
#PLAYLEVEL
#SONGID ""
#WAVE ""
#WAVEOFFSET 0
#JACKET ""
#REQUEST "ticks_per_beat 480"
#00002: 4
#BPM01: 108
#00008: 01
#TIL00: ""
#HISPEED 00
#MEASUREHS 00
#00014:00000012
#00018:000000000012
#00016:0000000000000012
#0011a:2400121400001200
#00112:2400001400000000
#00116:000000000000000000000000000000000000000012000012
#00118:0000000000000012
#00218:0000120000000012
#00212:2400001400000000
#0021a:2400001400001200
#00216:000000000012
#0041c:00000012
#00416:000000120000000000001200
#00418:0000000000000012
#00412:2400001400000000
#0041a:2400001400000000
#00516:00120000
#00512:0000001400001200
#00518:0000001400000000
#0051a:240000000012
#00514:2400000000000012
#0051c:000000000000000000000000000000000000000000000012
#00614:0000121400000000
#0061a:0000001400000000
#00616:0000000000000012
#00618:240000000012
#00612:24000012
#0091b:130000000000000000000000000000000000000000000013
#00916:000000130000130000000000000013000013000000000000
#00917:000000130013
#00912:1300000013000013
#00914:0000001300000000
#00919:0000001300000000
#00910:41
#01015:000000000000000000130013000000130000000013000000
#01012:000000130000130000000000000000000013000000000000
#01018:0000000000000013
#01016:13
#01017:0013000000000000
#0101b:000000000000000000000000000000000013000000000000
#01212:000013000000130000000000000000130000000000000000
#0121b:0013000000001300
#01216:12
#01215:00000013
#0171b:1300002313001300
#01715:000000000013
#01718:000000000000000000000000000000120000000000130013
#01712:2313001300120000
#0171c:00120000
#01716:00120000
#01812:130013000000000000130000000000000000130000000000
#01818:000000130000000013000000000000000000000000000000
#01815:000000000013000000000000130000000000000000000000
#01816:000000000000000000000000000000000000000000000013
#01819:0000000000000013
#01814:000000000013
#01817:00000013
#0181b:0013
#02518:2300001300130000
#0251b:00130013
#0251a:0012000000000012
#0251c:0012
#02514:0000000000000012
#0251f:11
#02914:000000000014
#02918:000013000000000013000000000000000000000000140000
#02915:000000000013000000000013000000130000000000000000
#02912:000000130000000000130000130000000013000000000000
#0291b:000000000000130000000000000000000000000000000013
#0291f:21
#03116:000013000013000000000000000000000000000000000014
#03114:000000000000000013000000000000000000000000140000
#03118:000000000014
#03119:0013
#03112:000000000000000000000013000013000013000000000000
#03117:0000000000130000
#0311b:230000000000000000000000000000000013000000000000
#0111b:000000130000000013000000000013000013000000000000
#01116:0013000000000000
#01117:00130000
#01112:000000000000130000000013000000000000000000000000
#01115:0000001300130000
#01118:000000130012
#01114:0000000000000012
#0111a:000000000000000000000000000000000000000000000012
#0211b:0000000000001313
#02116:000000000000000000000000000000000000000014000014
#02114:00000014000000000000000000000000
#02118:00000000000000140000000000000000
#02112:0014002414000000
#0211a:0024141400000000
#02212:130000000013000000000000130000000000120000000000
#0221b:0013000013000000
#02218:0000001200001313
#02215:000000000013
#02216:000014000014000012000000000000000000000000000000
#0221c:000000000000000000000000000000000000000000000012
#02316:0014000014000000
#02312:000000000000000000120000000000000000130000000013
#02315:1300000000000013
#02318:000000000000000000130000000000000000000013000000
#0231a:0000120000120000
#02314:0000120000120000
#0231b:00000013
#02310:41
#02818:1300001400000000
#02812:0000130000000000000000140000000000002c0000000000
#0281b:0013000000000000
#02816:000000000014000000000000140000000000000000000000
#0281a:00140000
#02814:001400
#03018:000013000000000000000000000013000013000000000000
#03012:000000130000000013000000000000000013000000130000
#0301b:00131300
#03017:0000001300000000
#03015:230000000000000000000000130000130000000000000013
#03010:41
#03218:00131300
#03213:0000000000130000
#0321a:240000000000000000000000000013000000000000130000
#03212:240000000000000000000000000000000013000000000000
#03214:000000130000000000000000000000000000000013000000
#03219:0013000000000000
#03215:000000000000130000000013000000000000000000000000
#0321b:000000000000000000000000000000000013000000000000
#03216:000000000000000000000000000000000000000000000014
#03816:0012001200000000
#03818:000000120000001300001300
#0381b:13002323
#03815:000000000000000000000000000000000013000000000000
#03812:0000000000230023
#0451b:0013132313000000
#04518:230000000000000000000000000000130000000013000013
#04515:00130000000013001300000023001300
#04512:13001300000000130000000000000000
#04718:230000000000000000130000130000000000000013000000
#04712:130000130000000000230000130000000000000000130013
#0471b:00001300130000130000000000000000
#04715:00130000000000000000130023000000
#04916:000000000000000000000000000000000000000014000014
#04912:0013000000000014
#0491b:1300131300000000
#04918:00130000000000130000130000000000
#04915:2300002313000000
#0491a:00000024
#0521c:00000012
#05215:000000130000000000130000000000000000000012000000
#05219:0000000000000012
#05212:230000000000000000000000000000000000000000130000000000000000130000000000000000000000000000001200
#05218:1313
#0521b:00130000130023000000000000000000
#04312:13131313
#04315:00001300001300000000130000130000
#0431b:1313001300130013
#04318:00000013000000000000001300000000
#01612:0013000000000000
#0161b:000000130000130000000000000000130013000000000000
#01616:000000000000000013130000
#01619:000000000013
#01614:0000000000000013
#01617:000000000000000000000000000000000000000000000013
#01615:0013
#01618:12
#02016:0013000000141414
#02012:1300001300130013
#0201b:1313000000001300
#02017:0000001300000000
#02019:00130000
#02014:00130000
#02414:0013000000000000
#02413:00130012
#02412:0000001300000000
#02415:13
#0241b:1300000000120000
#02418:0000001300000000
#02419:00130000
#0241a:0013000000000000
#02416:0000000000242400
#0271b:0013001300000000
#02718:2300130000130000
#02715:000000000000000000000000000000130000000000000013
#02712:0000001300000000
#03615:0013130013000000
#0361a:2400000000130000
#03613:000000000000001300000000
#03618:000013000000130000000013000000000000000000000000
#03612:24
#0371b:0013131300000000
#03718:00000013001300000000130013001300
#03715:00001300130013000000001300130000
#03712:0000000013131313
#0391b:1300000000131313
#03917:0013131300000000
#0391a:00000013001300000000000000000000
#03912:1313131300000000
#03915:0013
#03916:0000000000131313
#03913:00000000000000000000001300130000
#04018:130000120000000000120000000000000013000000000000
#04015:000000000000001300001300
#04016:00120000
#0401b:0000000000230023
#04012:00002323
#04010:41
#04112:1313001300130013
#04118:13001300001300000000130000130000
#04115:00000013000000000000001300000000
#0411b:00131313
#0421b:1300000000231300
#04216:000000140000000000140000000000000014000000000000
#04212:0000130013000023
#05118:1300000000000012
#0511b:00130000130023001300000023000000
#05112:23001300000000130000130023000000
#05115:0000001300000000
#05116:000000000000000000000000000000000000000012000012
#04612:0013132313000000
#04615:230000000000000000000000000000130000000013000013
#04618:00130000000013001300000023001300
#0461b:13001300000000130000000000000000
#04610:41
#04815:230000000000000000130000130000000000000013000000
#0481b:130000130000000000230000130000000000000000130013
#04812:00001300130000130000000000000000
#04818:00130000000000000000130023000000
#05016:000000000000000000000000000000000000000014000014
#0501a:0000000000000014
#05012:1300131300002400
#05015:00130000000000130000130000000000
#0501b:0013000000000000
#05018:2300002313000000
#01312:1313000000000000
#01317:000013000000000000000000000013000013000000000000
#0131b:1300130013000013
#01314:001300
#01319:0000001300000000
#01316:000000000013000000000013000000000000000000130000
#01412:130000000000000000000000000000000013000000000000
#01417:13
#01418:000000000000000000130013000000130000000013000000
#0141b:000000130013000000000000000000000013000000000000
#01416:001300000000000000000000
#01415:0000000000000013
#04416:000000140000000000140014220000000000000000000000
#0441b:00130000
#04412:13000022
#0441c:0022
#04414:0000000000220000
#0441a:0000000000220000
#04418:00000022
#03514:000000130014
#0351b:000000000000000000000013000013000013000000000000
#03517:000013000013000000000000000000000000000000000000
#03519:001300
#03512:230000000000000000000000000000000013000000000000
#03516:000000000000000000000000000000130000000000000014
#03518:0000000000000014
#03418:230000000000000000000000000000130000000000000013
#0341b:000000130000000013000000000000000013000000130000
#03415:000013000000000000000000000013000013000000000000
#03417:000000000000000000000013000000000000000000000000
#03412:00131300
#03416:0000001300000000
#03318:000000000013000000000013000000130000000014000000
#03312:240000000000130000000000000000000000000000000013
#0331b:000000130000000000130000130000000013000000000000
#03315:001300001300000000000000
#03314:0000000000000014
#02612:00131213
#0261a:0000000000000012
#02614:0012000000000012
#02615:2300001300130000
#01915:000000000000120000000000000000120000000000130013
#01919:0000120000120000
#01912:1300002313001300
#0191b:2313001300000000
#01918:000000000013
#01512:000000130000000013000000000013000013000000000000
#01518:0000001300130000
#01514:000000000000000000000000000000000000000000000012
#0151a:0000000000000012
#01516:000000130000000000001200
#0151b:000000000000130000000013000000000000000000000000
#01515:0013
#01517:0013000000000000
#01510:41
#00812:0000001400000000
#00818:0000001400000000
#0081a:24120000
#00814:24
#00712:240000000000000000000000000000000000000000000012
#0071a:0000001400000012
#00714:000000000000000000140000000000000000000012000000
#0071c:00000012
#00718:24120000
#00316:0000000000000012
#00318:000000000000000000000000000000000000000012000012
#00314:00120012
#0031a:2400001400000000
#00312:2400001400000000
#02356:0014000014000000
#02355:53
#02358:0000005300000000
#04452:00000012
#04458:00000012
#0455b:00130000
#04558:0000000000130000
#04552:53005300000000230000000000000000
#04555:00230000000063006300000000000000
#01058:0000000000000053
#0105b:000000000000000000000000000000000013000000000000
#01055:000000000053
#01656:00000013
#01654:0000000000000013
#0175b:5300001313000000
#01752:1313006300000000
#02154:00000024000000000000000000000000
#02152:0054341400000000
#02158:00000000000000240000000000000000
#0215a:0014005444000000
#0225b:0013
#02252:0013
#02456:00000014
#02452:0000001300000000
#02458:0000001300000000
#02856:0014
#02952:1c
#02958:000000000000000000000000000000000013000000000000
#03052:0053000000000000
#03058:000000000000000000000000000000000053000000000000
#03352:14
#03355:000000000000000000000000000000000013000000000000
#0375b:0053535300000000
#03758:00000023002300000000430043004300
#03755:00003300330033000000002300230000
#03752:0000000000636363
#03957:0063636300000000
#0395a:00000023002300000000000000000000
#03952:0033333300000000
#03956:0000000000535353
#03953:00000000000000000000002300230000
#0395b:0000000000434343
#0415b:0000534300005343
#04158:00004300002300000000430000230000
#04152:0053335300533353
#04155:00000023000000000000002300000000
#0425b:00000053
#04252:0053
#04355:00003300002300000000330000230000
#0435b:0063436300634363
#04358:00000023000000000000002300000000
#04352:0000633300006333
#0475b:00000000130000230000000000000000
#04752:5353000000000000
#04755:00230000000000000000130000000000
#04758:0000005353000000
#04052:00003333
#0405b:0000000000430043
#0495b:5300005300000000
#04958:00230000000000230000000000000000
#04955:00135300
#04952:0053000000130000
#05158:5300000000130000
#0515b:00230000000000006300000000000000
#05152:00005300000000230000000000000000
#05155:0000136300000000
#02056:0000000000141414
#02052:0000005300000000
#02057:0000005300000000
#04652:00130000
#04655:0000000000130000
#0465b:63006300000000230000000000000000
#04658:00230000000053005300000000000000
#04852:00000000130000230000000000000000
#0485b:6363000000000000
#04858:00230000000000000000130000000000
#04855:0000006363000000
#05052:6300006300000000
#05055:00230000000000230000000000000000
#0505b:0063000000130000
#05058:00136300
#0525b:00230000000000000000130000000000
#05252:00000000130000230000000000000000
#05258:5363
#05255:0053006300000000
#0095b:000000000000000000000000000000000043000000000000
#00956:000000000000000000000000000000000033000000000000
#02558:1300001300000000
#0255b:00000013
#02758:1300000000230000
#02755:0000000000230000
#02752:0000006300000000
#0275b:0000005300000000
#01152:000000000000000000000000000000000013000000000000
#01155:0000000000530000
#0125b:00000013
#01255:00000013
#03658:00530000
#03655:00630000
#03455:000000000000000000000000000000000063000000000000
#0345b:0063000000000000
#03255:00630000
#03258:00530000
#02655:1300001300000000
#02652:00000013
#01952:6300001313000000
#0195b:1313005300000000
#01859:0000000000000013
#01857:00000013
#0185b:0053
#01855:0053
#01858:0053000000000000
#0155b:000000000000000000000000000000000013000000000000
#01558:0000000000630000
#01452:000000000000000000000000000000000013000000000000
#01455:0000000000000063
#01458:000000000063
#01352:000000000000000000000000000000000033000000000000
#01357:000000000000000000000000000000000043000000000000
#0093b0:0013230000000000
#0093b0:000000000000000000000000000000130023000000000000
#010380:00130000
#0103b0:0000002300000000
#0103b0:0013
#010380:0000000000230000
#010350:000000000013
#011320:23
#010381:0000000000000013
#0113b1:23
#011351:0000000000130000
#011321:000000000000000000000000000000000023000000000000
#012381:00130000
#0123b1:0000002300000000
#012350:0000001300000000
#012320:0023
#0123b1:0013
#012381:0000000000230000
#013321:000000000000000000000000000000130023000000000000
#014351:00130000
#014321:0000002300000000
#014321:0013
#014351:0000000000230000
#014381:000000000013
#0153b1:23
#014350:0000000000000013
#015320:23
#015380:0000000000130000
#0153b0:000000000000000000000000000000000023000000000000
#016350:00130000
#016320:0000002300000000
#016381:0000001300000000
#0163b1:0023
#0173b1:13
#017371:0023000000000000
#017321:0000001300000000
#017361:0023
#018381:0013000000000000
#0183b1:000000000023000000000000000000000000000000000000
#018351:0013
#018321:0000000000230000
#0183b0:0013
#018380:0000000000230000
#019320:13
#019360:0023000000000000
#0193b0:0000001300000000
#019370:0023
#020320:0000001300000000
#020360:0023
#020371:0000001300000000
#0203b1:0023
#021321:0014240000000000
#021341:00000054000000000000000000000000
#0213a1:0000001424000000
#021381:00000000000000540000000000000000
#023351:13
#023321:0023000000000000
#023381:0000001300000000
#0233b1:0023
#025321:13333323
#025351:0033003300330000
#0263b1:13333323
#026381:0033003300330000
#027351:13230000
#027321:0033000000000000
#027321:0000001300000023
#027351:0000000000530000
#0273b0:0000001300000023
#027380:0000000000530000
#028320:0000000000000000000000000000000000000000000000000000000000000000000000000000000000000000000000001c5c5c5c5c5c5c5c5c5c5c5c5c5c5c5c
#028340:0000000000000000000000000000000000000000000000000000000000000000000000000000000000000000000000000000000000000000000000000000000000000000000000000000000000000000000000000000000000000000000000000058005800580058005800580058005800580058005800580058005800580058
#029320:2c
#0293b0:0000000013330000
#029380:000000000000000000000000000033000023000000000000
#030320:0013000000000000
#030350:00230000
#030380:000000000000000000000000000000000013000000000000
#0303b0:0000000000000023
#0313b0:000000130023000000000000000000000000000000000000
#031390:000000132300000000000000
#031370:000000000000000000130023000000000000000000000000
#032350:00130000
#032320:0000002300000000
#032381:00130000
#0323b1:0000002300000000
#033321:0000000013330000
#033351:000000000000000000000000000033000023000000000000
#0343b1:0013000000000000
#034381:00230000
#034351:000000000000000000000000000000000013000000000000
#034321:0000000000000023
#035321:000000130023000000000000000000000000000000000000
#035341:000000132300000000000000
#035361:000000000000000000130023000000000000000000000000
#036381:00130000
#0363b1:0000002300000000
#036350:00130000
#036320:0000002300000000
#036320:000000000000000000000000000000000000000000000000000000000000000000000000000000000000000000000000000000000000000000000000000000000000000000000000000000000000000000000000000000000000000000000000000000000000000000000000000000000000000000000000000000000000000000000000000000000000000000000000000000000000000000000000000000000000000000000000000000000000000000000000000000000000000000000000000000000000000000000000000000000000000000000000000000000000000000000000000000000000000000000000000000000000000000000000000000000000000000000000000000000000000013000000000000530000000000530000000000530000000000530000000000530000000000530000000000530000000000530000000000530000000000530000000000530000000000530000000000530000000000530000000000530000000000530000000000530000000000530000
#036330:00000000000000000000000000000000000000000000000000000000000000000000000000000000000000000000535353535353535353535353535353535353
#037330:23
#0363b1:000000000000000000000000000000000000000000000000000000000000000000000000000000000000000000000000000000000000000000000000000000000000000000000000000000000000000000000000000000000000000000000000000000000000000000000000000000000000000000000000000000000000000000000000000000000000000000000000000000000000000000000000000000000000000000000000000000000000000000000000000000000000000000000000000000000000000000000000000000000000000000000000000000000000000000000000000000000000000000000000000000000000000000000000000000000000000000000000000000000000000013000000000000530000000000530000000000530000000000530000000000530000000000530000000000530000000000530000000000530000000000530000000000530000000000530000000000530000000000530000000000530000000000530000000000530000000000530000
#0363a1:00000000000000000000000000000000000000000000000000000000000000000000000000000000000000000000535353535353535353535353535353535353
#0373a1:23
#0373b1:0013333300000000
#037381:00000053005300000000000000000000
#037371:0023
#037321:0000000000133333
#037351:00000000000000000000005300530000
#038361:23
#0383c1:000012220000000000000000000000000000000000000000
#038321:000000000012220000000000000000000000000000000000
#0383c1:000000000000000012220000000000000000000000000000
#038321:000000000000000000000012220000000000000000000000
#039371:0013333300000000
#0393a1:00000053005300000000000000000000
#0393b1:0023
#039361:0000000000133333
#039331:00000000000000000000005300530000
#040321:23
#040321:000012220000000000000000000000000000000000000000
#0403c1:000000000012220000000000000000000000000000000000
#040321:000000000000000012220000000000000000000000000000
#0403c1:000000000000000000000012220000000000000000000000
#041321:0013230000000000
#041351:00000053000000000000000000000000
#0413b0:0000132300000000
#041380:00000000005300000000000000000000
#041321:0000001300000000
#041361:0023
#041321:0000000000132300
#041351:00000000000000000000005300000000
#0413b0:0000000000001323
#041380:00000000000000000000000000530000
#041321:0000000000000013
#042361:23
#0423b1:000013230000000000000000000000000000000000000000
#042361:000000000014240000000000000000000000000000000000
#0423b1:000000000000000013230000000000000000000000000000
#042361:000000000000000000000014240000000000000000000000
#042320:0013
#042350:0000000000230000
#0423b0:00000013
#042380:0000000000000023
#0433b0:0013230000000000
#043380:00000053000000000000000000000000
#043321:0000132300000000
#043351:00000000005300000000000000000000
#0433b0:0000001300000000
#043370:0023
#0433b0:0000000000132300
#043380:00000000000000000000005300000000
#043321:0000000000001323
#043351:00000000000000000000000000530000
#0433b0:0000000000000013
#044370:23
#044320:000013230000000000000000000000000000000000000000
#044360:000000000014240000000000000000000000000000000000
#044320:000000000000000013230000000000000000000000000000
#045320:1333000000000000
#045350:00530000230000000000000000000000
#045350:0000001333000000
#045320:00000000000000530000230000000000
#0463b0:1333000000000000
#046380:00530000230000000000000000000000
#046380:0000001333000000
#0463b0:00000000000000530000230000000000
#047320:1333000000000000
#047350:00530000230000000000000000000000
#047380:0000001333000000
#0473b0:00000000000000530000230000000000
#0483b0:1333000000000000
#048380:00530000230000000000000000000000
#048350:0000001333000000
#048320:00000000000000530000230000000000
#0493b0:1323000000000000
#049380:00530000000000000000000000000000
#049321:0013000000000000
#049351:00230000
#0493b1:0000001323000000
#049381:00000000000000530000000000000000
#049350:0013
#049320:0000000000230000
#050320:1323000000000000
#050350:00530000000000000000000000000000
#0503b1:0013000000000000
#050381:00230000
#050321:0000001323000000
#050351:00000000000000530000000000000000
#050380:0013
#0503b0:0000000000230000
#051380:1323000000000000
#0513b0:00530000000000000000000000000000
#051321:0013000000000000
#051351:00230000
#051351:0000001323000000
#051321:00000000000000530000000000000000
#0513b0:0013
#051380:0000000000230000
#052380:1323000000000000
#0523b0:00530000000000000000000000000000
#052351:0013000000000000
#052321:00230000
#052351:0000001323000000
#052321:00000000000000530000000000000000
#052380:0013
#0523b0:0000000000230000
