This file was generated by Ched 2.7.0.0.
#TITLE ""
#ARTIST ""
#DESIGNER ""
#DIFFICULTY 0
#PLAYLEVEL
#SONGID ""
#WAVE ""
#WAVEOFFSET 0
#JACKET ""
#REQUEST "ticks_per_beat 480"
#00002: 4
#BPM01: 108
#00008: 01
#TIL00: ""
#HISPEED 00
#MEASUREHS 00
#0001b:00000013
#00015:000000000013
#00018:0000000000000013
#00118:000000000000130000000000000000000000000013000013
#00112:2400001400001300
#00115:0000000000000013
#00218:000000130000000000001300
#00212:2400001400001300
#00215:0000000000000013
#00918:000000130000000000130000000000000000000013000013
#00915:0000130000000013
#0091b:1313
#00910:41
#01218:0013000013001300
#0121b:0000000000130000
#01212:00130013
#01215:1300001300000000
#01712:00000013
#01715:2300002300000013
#01718:0013000013000000
#0171b:00000013
#01818:130000000013000000000000130000000000130000000000
#01815:001300
#0181b:0000001300000000
#01812:0013000013001300
#02918:0000130000000013
#0291b:0013
#02915:0000001300000000
#02912:0013000000000000
#0291f:21
#02815:1313000000000000
#02818:000013000000000000000014000000000000260000000000
#0281a:000000000014000000000000000000000000000000000000
#02814:00140000
#02819:001400
#02813:0000001400000000
#02812:0014
#0301b:0013001300000000
#03012:0000001300000000
#03015:2300000013130000
#03018:000000000000000000000000000013000013000000000000
#03010:41
#03112:2300000000000013
#03118:000000000000130000000000130000000013000000130000
#03115:0013001300130000
#0311b:0000001300000000
#03215:130000000000000000000000130000000013000000000000
#03218:0013000000130013
#03212:0013130000000000
#0321b:23130000
#03815:0013001300001300
#03818:0000130000130013
#03812:1300000013240024
#0381a:00002424
#04515:0000130013002313
#04518:000000130000000000000000000000130000000013000013
#04512:23
#0451b:2300002300000000
#0521a:00000012
#05216:000000000012
#05218:0000130000000012
#05214:000000000000000000000000000000000000000000000012
#0521b:0013
#05215:0000000000130000
#05212:0000002300000000
#02014:00130014
#02018:0000000000140014
#02016:0000001300000000
#0201b:0000001300000000
#02015:13
#02019:00130000
#02012:0013000000000000
#02017:0013000000000000
#02418:0013000000002400
#0241b:0000001300000000
#02412:13
#02415:00130000
#02414:0000000000240000
#0371b:0013000000130000
#03715:00130013
#03718:0000001300000013
#03712:0013
#02718:000000000000000000000000000000000000000000000013
#0271b:2300131300000000
#02712:2300131300000000
#00315:000000000000130000000000000000000000000013000013
#0031a:2400001400000000
#0031b:00000013
#00318:0000000000000013
#00415:000000130000000000001300
#0041a:2400001400000000
#0041b:00000013
#00418:0000000000000013
#00518:000000000000130000000000000000000000000013000013
#00512:2400001400001300
#00515:0000000000000013
#00618:000000130000000000001300
#00612:2400001400001300
#00615:0000000000000013
#00715:000000000000130000000000000000000000000013000013
#0071a:2400001400000000
#0071b:00000013
#00718:0000000000000013
#00815:00130000
#0081a:2400001400000000
#01015:000000130000000000130000000000000000000013000013
#01018:0000130000000013
#01012:1313
#01118:1300001300000000
#01112:0013000000000000
#01115:00130000
#0111b:0000000013000013
#01315:0013001300000013
#01318:00130000
#01312:1313
#01418:000000130000000000130000000000000000000013000013
#01415:0000130000000013
#0141b:1313
#01515:1300001300000000
#0151b:0013000000000000
#01518:00130000
#01512:0000000013000013
#01510:41
#01915:0013000013000000
#0191b:00000013
#01918:2300002300000013
#01912:00000013
#02118:0000140000000013
#0211a:0014
#0211b:00000013
#02112:0024000000001300
#02114:0000002400000000
#02312:13000013
#02318:000013000000000000000000000000000000000013000013
#0231b:0000001300000000
#02315:000000000000000000000013000000000000000000130000
#02310:41
#02215:1300130013000013
#02218:0000001300001300
#02212:0000001300000000
#0221b:0013000013000000
#02512:13001313
#02515:0013001300130000
#0251b:13001313
#02518:0000130000000013
#0251f:11
#0261b:13001313
#02618:0013001300130000
#02612:13001313
#02615:0000130000000013
#0391a:14
#03912:0013000000130000
#03918:00130013
#03915:0000001300000013
#0391b:0013
#0421a:0014000014000000
#04216:00140000
#04212:1400001400001400
#0411a:0014000000140000
#04114:00140014
#04118:0000001400000014
#04112:1414
#04618:0000130013002313
#04615:000000130000000000000000000000130000000013000013
#04612:2300002300000000
#04610:41
#04718:000000000000130000000000000000130000000000000013
#04715:0013000013000013
#0471b:230000000013
#04712:0000002300002300
#04815:000000000000130000000000000000130000000000000013
#04818:0013000013000013
#04812:230000000013
#0481b:0000002300002300
#04915:0000130000000013
#04918:000000000000000000000000000000130000000000000013
#0491b:000000000013
#04912:00000023
#05018:0000130000000013
#05015:000000000000000000000000000000130000000000000013
#05012:000000000013
#0501b:00000023
#05115:00130013
#05112:0000000013000013
#05118:000000000000000000000000000000130000000013000000
#0511b:000000000000000000230000000000000000000000000013
#03315:0000130000000013
#03318:0000001300000000
#0331b:0013000000000000
#03312:2413
#03412:0013001300000000
#0341b:0000001300000000
#03418:2300000013130000
#03415:000000000000000000000000000013000013000000000000
#0351b:2300000000000013
#03515:000000000000130000000000130000000013000000130000
#03518:0013001300130000
#03512:0000001300000000
#03618:13
#0361b:0013130000000000
#03615:0013000000000000
#03612:23130000
#04018:0013001300000000
#04015:00130000
#0401b:13
#04012:00002424
#0401a:0000000000240024
#04010:41
#04412:0014000000000000
#04416:00140000
#0441a:1400001400000000
#04417:0000000000220000
#04415:00000022
#04419:0022
#04312:0014000000140000
#04318:00140014
#04314:0000001400000014
#0431a:1414
#01615:0013000013001300
#01612:0000000000130000
#0161b:00130013
#01618:1300001300000000
#04455:00000012
#04555:00130000
#04558:0000000000130000
#01755:1300001300000000
#01758:0013000013000000
#02458:00000014
#0245b:0000001300000000
#02852:0014
#02958:16
#02955:000000000000000000000000000000000013000000000000
#0305b:0063000000000000
#03058:000000000000000000000000000000000053000000000000
#02054:00000014
#02058:0000000000140014
#0275b:1300005300000000
#02752:1300006300000000
#01252:00000013
#01258:00000013
#03252:00630000
#0325b:00530000
#02154:0000001400000000
#02152:0014000000000000
#02158:00140000
#0215a:0014
#01852:00006313
#01858:00006313
#01955:0013000013000000
#01958:1300001300000000
#03352:14
#03358:000000000000000000000000000000000013000000000000
#0375b:0013000000130000
#03755:00130013
#03758:0000001300000013
#04052:00001414
#0405a:0000000000140014
#04154:00140014
#04158:0000001400000014
#0415a:0014000000140000
#0425a:0054
#04252:00000054
#04658:00130000
#04655:0000000000130000
#04758:0000130000130000
#04855:0000130000130000
#04958:0000000000130000
#04955:00130000
#05058:00130000
#05055:0000000000130000
#05155:00130000
#05158:0000000000130000
#05258:00130000
#05255:0000000000130000
#03452:0053000000000000
#03455:000000000000000000000000000000000063000000000000
#0365b:00530000
#03652:00630000
#03952:0013000000130000
#03958:00130013
#03955:0000001300000013
#04352:0014000000140000
#04358:00140014
#04354:0000001400000014
#0165b:00000013
#01655:00000013
#0225b:0053
#02255:0053
#009350:000000000000000000000000000000130023000000000000
#010380:000000000000000000000000000000130023000000000000
#011350:000000000000000000000000000000130023000000000000
#013380:000000000000000000000000000000130023000000000000
#014350:000000000000000000000000000000130023000000000000
#015380:000000000000000000000000000000130023000000000000
#018380:0013
#0183b0:0000000000230000
#018321:0013
#018351:0000000000230000
#022351:0013
#022321:0000000000230000
#0223b0:0013
#022380:0000000000230000
#023350:0013230000000000
#023380:0000000013230000
#0273b0:0000001300000000
#027380:00000023
#027321:0000001300000000
#027351:00000023
#028381:00000000000000000000000000000000000000000000000000000000000000000000000000000000000000000000000016565656565656565656565656565656
#0283a1:0000000000000000000000000000000000000000000000000000000000000000000000000000000000000000000000000000000000000000000000000000000000000000000000000000000000000000000000000000000000000000000000000052005200520052005200520052005200520052005200520052005200520052
#029381:26
#029351:000000000000000000000000000000130023000000000000
#0303b1:0013000000000000
#030381:00230000
#030381:000000000000000000000000000000000013000000000000
#0303b1:0000000000000023
#032321:00130000
#032351:0000002300000000
#0323b0:00130000
#032380:0000002300000000
#033380:000000000000000000000000000000130023000000000000
#034320:0013000000000000
#034350:00230000
#034350:000000000000000000000000000000000013000000000000
#034320:0000000000000023
#0363b0:00130000
#036380:0000002300000000
#036321:00130000
#036351:0000002300000000
#036381:0000000013230000
#036321:000000000000000000000000000000000000000000000000000000000000000000000000000000000000000000000000000000000000000000000000000000000000000000000000000000000000000000000000000000000000000000000000000000000000000000000000000000000000000000000000000000000000000000000000000000000000000000000000000000000000000000000000000000000000000000000000000000000000000000000000000000000000000000000000000000000000000000000000000000000000000000000000000000000000000000000000000000000000000000000000000000000000000000000000000000000000000000000000000000000000000014000000000000540000000000540000000000540000000000540000000000540000000000540000000000540000000000540000000000540000000000540000000000540000000000540000000000540000000000540000000000540000000000540000000000540000000000540000
#036331:00000000000000000000000000000000000000000000000000000000000000000000000000000000000000000000545454545454545454545454545454545454
#037331:24
#0423a1:0014
#042371:0000000000240000
#042321:00000014
#042351:0000000000000024
#0493b1:1323000000000000
#049381:0000001323000000
#050321:1323000000000000
#050351:0000001323000000
#0513b1:13
#051381:0023000000000000
#052321:13
#052351:0023000000000000
