This file was generated by Ched 2.7.0.0.
#TITLE ""
#ARTIST ""
#DESIGNER ""
#DIFFICULTY 0
#PLAYLEVEL
#SONGID ""
#WAVE ""
#WAVEOFFSET 0
#JACKET ""
#REQUEST "ticks_per_beat 480"
#00002: 4
#BPM01: 108
#00008: 01
#TIL00: ""
#HISPEED 00
#MEASUREHS 00
#00014:00000012
#00018:000000000012
#00016:0000000000000012
#0001a:00000012
#0011a:24120000
#00118:0000001600000012
#00112:2600001400001200
#0011c:00000012
#00116:000000120000120000000000000000000000000012000012
#00218:2600120000000012
#00212:2400001600000000
#0021a:0000001400001200
#00216:000000120000000000000000000000000000000012000000
#00214:00000012
#0041c:00000012
#00416:000000120000000000001200
#00418:000000120000000000160000000000000000000000120012
#00412:2600001400000000
#0041a:24
#00518:000000000000120000160000000000000000000012000000
#00512:2600001400001200
#00516:0000000000000012
#0051c:000000120000000000000000000000000000000000000012
#00514:00120000
#0051a:24
#00614:00120000
#00612:2400001600001200
#0061a:0000001400000000
#00618:260000120000120000000000000000000000000012000000
#00616:000000000000000000000000000000000000000000120012
#0091b:130000130000000000000000130000000000000000000013
#00916:000014000000000014000000000000000000000000000013
#00912:130000000000130000130000000000000013000000130000
#00917:000000000000000000000000000000000000000013130000
#00915:000000000000001600000000
#00910:41
#01015:000000000000000016130016130000130000000016130000
#01012:000000130000130000000000000000000013000000000000
#01018:0000000000000013
#01016:13
#01017:0013000000000000
#0101b:000000000000130000000000130000000013000000000000
#01212:000016000000130000000000000000130000000000000000
#01218:0016000000000000
#01216:12000014
#0121b:00000013
#01718:000000000000120000220000000000000000160000000013
#01715:000000000000000000000000000000000000000013160000
#01716:1400000000120000
#01714:0014000000000000
#0171c:00120000
#01712:2200001400120000
#0171a:0014
#01812:160013160000000000130000000000000000180000000000
#01818:000000000000000013130000000000000000000000140012
#0181b:000000000013000000000000130000000000000000000000
#01815:000000000013000000000013130000000000000000000000
#01814:000000000014
#02518:2300001300130000
#0251b:00130013
#0251a:0012000000000012
#0251c:0012
#02514:0000000000000012
#02512:1300001300001300
#02515:000000000016000000000000160000130000000000000000
#0251f:11
#02916:000000000000000000000000000000000000000014140000
#02918:001300001300000000000000
#02915:000000000013190000000016000000130000000000000019
#02912:000000190000000000190000130000000013000000000000
#0291f:21
#03116:000014000014000000000000140000180018000000000000
#03118:001400
#03115:000000000013
#03112:260000000000000000000014130018000000180000130000
#0311b:230000000000000000000000000000000000000000000013
#0111b:000000130000000013000000000013000000000000000000
#01116:000000140000140000000000000000000000000000000012
#01112:000000000000130000000013000000130000000000000000
#01115:000000000000000000160000160013000000000000000000
#01118:000000000000000000000000000000000013000012120000
#01114:0000000000000012
#0111a:000000000000000000000000000000000000000000000012
#0211b:0000000000001313
#02116:000000000000280000140000180000000000000000140000000000000000000000000000000000001800000000000000
#02112:000000140000000000280000180000000000000000000018
#0211a:0000001400000000
#02212:1313000014001200
#0221b:000000130013000000000000000000000000000000000000
#02216:000014000014000014140000000000000000000000000000
#0221a:0014
#02218:0000000000001614
#02214:000000000014
#0221c:000000000000000000000000000000000000000000000012
#0231a:2414121400120000
#02312:1400002414001300
#02315:000000000000000000000000000000000000000000160016
#02318:000000000013
#02314:0000120000120000
#0231b:00000013
#02316:00140000000000140000000000000000
#02310:41
#02818:161300000000000000260000
#0281b:0013000000000000
#02816:000000000013000000000000000000000000000000000000
#02819:00130000
#02814:001300
#02817:0000001300000000
#02812:000000000000000000000013000000000000260000000000
#02815:0016
#03012:230019130000000013130000000000000013000000000000
#0301b:2313130013000000
#03015:0000000016130013
#03018:000000000000000000000000000013000013000000000013
#03016:00000013000000000000000000000000
#03010:41
#03218:230000130000130000000016160000000000000000000000
#03212:230000000000000000130000000016160013000000000000
#03215:000000000000130000130000000000000000000013160016
#0321b:000000130000000000000000000000000013000000000000
#03816:0012000000000000
#03818:000016000000120016120000000000230000000000000000
#03815:000000000000000000000000000016000016230016000000
#0381b:1323
#03812:000000000016000000000016000000000000000000230000
#0451b:0013132313002300
#04518:230000000000000000000000000000130000000016000013
#04515:000016000016000000000016000000000000230000130000
#04512:230000000000000000230000000016000000000000000000
#04916:000000000000000000000000000000000000000014000018
#04912:0000002919192418
#04915:290013190013190000000000000000000000000000000000
#04918:000000000000000000000013000013000000000000000000
#0491a:00000024
#05212:2414002618001200
#05219:000000000012
#05215:0000000000000012
#0521c:000000000000000000000000000000000000000000000012
#05216:000000000016000000000014000014180000120000000000
#05218:260000000000000000000000000000000000000000000012
#05214:001600000000000000000000
#0521a:0000142400000000
#04312:1313
#0431b:13
#04315:0016000000160000
#01612:0013000013000000
#0161b:00130000
#01616:000000000000000000000000000000001400180000000012
#01618:120000000014
#01614:0000000000000014
#0161a:000000000000000000000000000000140014000000000000
#01617:0013000000000000
#02012:0000001600180014
#02014:00000014
#02016:0000000000000018
#02018:160000160013000000000000000000000000140000000000
#0201b:001300000000130000000000
#02015:000000161300000000000000
#0201a:0000000000140000
#0241a:0013000000000000
#02419:00130000
#02418:000000000000000000130000000000000000000000001300
#0241b:13
#02413:0013000000000000
#02414:00130000
#02415:000000000000000000130000000000000000000000130013
#02412:1300000000122800
#0241c:00000012
#02416:0000000000280000
#0271b:0013000013130000
#02712:0000131300001613
#02715:130000001300000000000013000000001600000000001613
#02718:230000000013000000001300000000000013000000000000
#03615:230000130013000000130000160000000000000000000000
#03613:0000000000000000000000000000131a0000000000000000
#03618:000013000000130013000013000000000000000000000000
#0361b:2313001300000000
#03612:00130000
#03715:0013000000000000
#03712:00000000000000000000000000000000160000000000000013000000000000001300000000000000130000000000000000130000000000000013000000000000
#0371b:00000000000000001300000000000000001300000000000000130000000000000000000000000000000000000000000000000000000000001300000000000000
#03718:0000000000131600
#04015:000000000000000000000000000013260000260013000000
#04018:000000120016000000000016000000000013000000260000
#04016:0000121200000000
#04012:131600001600260000000000
#04010:41
#04115:1316000000160000
#0411b:0013
#04118:13
#05118:000000000000000000260000000000000000000012000000
#05116:000016000000000000000014180014000000000000120012
#0511a:2414000000002400
#05114:000000000016000000000000000000000000000000000000
#05112:2600142400182600
#01312:130000130000000013190000000000000000000000000000
#01316:000014000014120000000000000000000000000000140000
#0131b:130000000000130000000000130000000013000000130000
#01315:000000000000000000000019000016000000000000000000
#01318:0012000000000000
#01412:130000000000130000000000130000000013000000000000
#01416:140014140014000000000000000000000000000000000000
#01418:0000001313130013
#0141b:000000130000130000000000000000000013000000000000
#01415:000000000000000016000016000000000000000016130000
#00314:00120000
#00312:2400001600001200
#0031a:0000001400000000
#00318:260000120000120000000000000000000000000012000012
#00316:0000000000000012
#0031c:00000012
#00716:000000120000000000001200
#0071a:0000121400000000
#00712:240000120000000000160000000000000000000000000012
#0071c:00000012
#00718:2600000000000012
#0081a:24120000
#00818:0000001600000000
#00812:2600001400000000
#00816:0012120000000000
#01512:000000130000000013000000000013000000000000000000
#01516:000000140000140000000000000000000000000012120000
#0151b:000000000000130000000013000000130000000000000000
#01515:000000000000000000160000160000000013000000000000
#0151a:0000000000000012
#01514:000000000000000000000000000000000000000000000012
#01518:000000000000000000000000000013000000000000000012
#01510:41
#01912:00121416
#01918:000000140000000000000000000000120000000013000000
#01915:000000000000000000000000000000000000000000160013
#01916:1400122200000000
#0191c:2200000000120000
#0191a:0000001400000000
#02615:230000000016000000130016000000130000000000000000
#02612:00131213
#02614:0012000000000012
#0261a:0000000000000012
#0261b:130000000000000000130000000013000000130000000000
#02618:0000000000130000
#03316:000000000000000000000000000000000000000014140000
#03315:000013190000000013190016000000000000000000000000
#03318:000000000013000000000000000000130000000000000000
#0331b:230000000000000000000000130000000013000000000000
#03312:230000000000190000000000000000000000000000000019
#03415:000019000000000000000000160013000013000000000013
#0341b:230000130000000013130000000000000013000000000000
#03412:2313130013000000
#03418:0000000000130013
#03417:00000013000000000000000000000000
#03518:260000000013
#0351b:0000000013000013
#03516:000014000014000000000000140018000000180000000000
#03512:230000000000000000000000000000180018000000000013
#03514:001400
#0351a:000000000000000000000014000000000000000000000000
#03918:0013160000000000
#0391b:00000000000000000000000000000000000000000000000013000000000000001300000000000000130000000000000000130000000000000013000000000000
#03912:00000000000000001300000000000000001300000000000000130000000000000000000000000000000000000000000016000000000000001300000000000000
#03915:1200000000130000
#03919:12
#0421b:1300000000000023
#04212:0014001400230000
#0421a:00140000
#04412:13142200
#04414:000000000000000000000014000000220000000000000000
#04416:000000000000001400220000
#04418:000000000000000000000000220000000014000000000000
#0441a:0014001400220000
#0441c:00000022
#04612:000000130000130000230000130000000000230016000000
#04615:230016000016000000000016000000130000000000000013
#04618:000000000000000000000000000016000000230000130000
#0461b:2300002300000000
#04610:41
#04718:2300130000130000
#04715:000019000000000000000019000019000000230019130016
#0471b:0013002313002300
#04712:230000000019000000230000000000000000000000000000
#04815:230000000019130000000000000000130000000000000016
#04812:000019130000000000230019130019000000230019000000
#04818:0000000000002313
#0481b:2300002300000000
#05016:000000000000000000000000000000000000000014180000
#05012:290000190000190000000000000000000000240000000018
#05018:000013000013000000000000000000000000000000000000
#05015:000000000000000000290013190013190000000000000000
#0501a:00000024
#0235a:1414006400000000
#02352:5400001414000000
#02356:00240000000000240000000000000000
#0445c:00000012
#04456:00000012
#0445a:0014001400000000
#04452:00140000
#0455b:00130000
#04558:0000000000130000
#01058:0000000000000053
#0105b:000000000000000000000000530000000013000000000000
#01055:0000000000000063
#01656:00000018
#01654:0000000000000014
#01756:54
#01752:1200006400000000
#01754:0014000000000000
#0175a:0014
#01758:0000001200000000
#02156:00004824480000240000000000000000
#02152:0054343838000000
#0215a:0000005444000000
#0225a:0014
#02252:0014
#02452:00000018
#02458:0000001300000000
#02455:0000001300000000
#02855:0016
#02952:16
#02958:160000000000000000000000000000000013000000000000
#03052:000000530000000000000000000000000013000000000000
#03058:000000000000000000000000000000000053000000000000
#03056:00000023000000000000000000000000
#0305b:00531300
#03057:0000001300000000
#03352:13
#03355:000000000000000000000000000000000013000000000000
#03755:0033000000000000
#03752:00000000000000000000000000000000360000000000000033000000000000000000000000000000630000000000000000630000000000000063000000000000
#0375b:00000000000000005300000000000000005300000000000000530000000000000000000000000000000000000000000000000000000000004300000000000000
#03758:0000000000434600
#0415a:0000004300000043
#04155:0046000000460000
#04152:00330033
#04055:0000000000463600
#04058:0000000000000046
#04052:0036
#02052:0000005600180000
#02054:00000014
#02056:0000000000000018
#02058:00000014
#00958:000000000000000000000000000000000043000000000000
#00952:000000000000000000630000000000000033000000000000
#0095b:0053000000000000
#02558:1300001300000000
#0255b:00000013
#02758:13
#01155:000000000000000000160000160000000013000000000000
#01152:0000000000530000
#0125b:00000013
#01256:00000014
#0135b:000000000000000000000000000000000043000000000000
#01355:000000000000000000000000000000000033000000000000
#01452:000000000000000000000000630000000013000000000000
#01455:0000000000000063
#01458:0000000000000053
#01555:0000001616000000
#0155b:0000000000630000
#01558:000000000000000000000000000000000013000000000000
#01852:0000003300001800
#0185b:0043
#01858:0000000000000014
#01956:6400001200000000
#01958:0014000000000000
#0195a:0000005400000000
#01952:0014
#0195c:12
#02655:1300001300000000
#02652:00000013
#0345b:000000630000000000000000000000000013000000000000
#03452:00631300
#03455:000000000000000000000000000000000063000000000000
#03457:00000023000000000000000000000000
#03456:0000001300000000
#03958:0043460000000000
#0395b:00000000000000000000000000000000000000000000000043000000000000000000000000000000530000000000000000530000000000000053000000000000
#03952:00000000000000006300000000000000006300000000000000630000000000000000000000000000000000000000000036000000000000003300000000000000
#03955:0000000000330000
#04252:0014001400000000
#0425a:00140000
#04355:0036000000360000
#0435b:00430043
#04353:0000003300000033
#04955:00190000
#04952:0000000000190000
#05152:0000140000180000
#04652:00130000
#04655:0000000000130000
#04758:0000130000130000
#04855:0000130000130000
#05052:00190000
#05055:0000000000190000
#0525a:00140000
#05256:0000000000180000
#0093b0:0013000000000000
#009370:00230000
#009320:0000001300000000
#009360:0023
#009380:000000000000000000000000000000130023000000000000
#0103b0:0013
#010380:0000000000230000
#010380:0000000000000013
#0113b0:23
#010351:0000000000000013
#011321:23
#011321:0000000000130000
#011351:000000000000000000000000000000000023000000000000
#012361:00140000
#0123a1:0000002400000000
#012360:0000001400000000
#012320:0024
#0123a1:0014
#012361:0000000000240000
#013351:000000000000000000000000000000130023000000000000
#014321:0013
#014351:0000000000230000
#014351:0000000000000013
#015321:23
#014380:0000000000000013
#0153b0:23
#0153b0:0000000000130000
#015380:000000000000000000000000000000000023000000000000
#016360:00140000
#016320:0000002400000000
#016361:0000001400000000
#0163a1:0024
#017361:14
#0173a1:0024000000000000
#017321:0000001400000000
#017361:0024
#019361:14
#019321:0024000000000000
#0193a1:0000001400000000
#019361:0024
#020321:0000001600000000
#020351:0026
#021321:0014240000000000
#021361:00000054000000000000000000000000
#0213a1:0000001424000000
#021361:00000000000000540000000000000000
#023321:1424000000000000
#023361:00540000000000000000000000000000
#0233a1:0000001424000000
#023361:00000000000000540000000000000000
#028321:00000000000000000000000000000000000000000000000000000000000000000000000000000000000000000000000016565656565656565656565656565656
#028341:0000000000000000000000000000000000000000000000000000000000000000000000000000000000000000000000000000000000000000000000000000000000000000000000000000000000000000000000000000000000000000000000000052005200520052005200520052005200520052005200520052005200520052
#029321:26
#028380:00000000000000000000000000000000000000000000000000000000000000000000000000000000000000000000000016565656565656565656565656565656
#0283a0:0000000000000000000000000000000000000000000000000000000000000000000000000000000000000000000000000000000000000000000000000000000000000000000000000000000000000000000000000000000000000000000000000052005200520052005200520052005200520052005200520052005200520052
#029380:26
#0293b0:0013
#029380:000000000000002300000000
#0293b0:0000000000130000
#029380:000000000000000000000000000000000023000000000000
#030320:0013230000000000
#030360:00000053000000000000000000000000
#0303b1:00130000
#030371:0000002300000000
#030381:000000000000000000000000000000000013000000000000
#0303b1:0000000000000023
#0313b1:000000130023000000000000000000000000000000000000
#031341:000000132300000000000000
#031371:000000000000000000130023000000000000000000000000
#033321:0013
#033351:000000000000002300000000
#033321:0000000000130000
#033351:000000000000000000000000000000000023000000000000
#0343b1:0013230000000000
#034371:00000053000000000000000000000000
#034320:00130000
#034360:0000002300000000
#034350:000000000000000000000000000000000013000000000000
#034320:0000000000000023
#035320:000000130023000000000000000000000000000000000000
#035390:000000132300000000000000
#035360:000000000000000000130023000000000000000000000000
#036320:000000000000000000000000000000000014000000000000
#036340:000000000000000000000000000000000000000000000000000000000000000000000054000054000000000000000000
#036330:00000054
#036350:000000000000000000000000000000000000000000000000000000000000000000000000005400005400000000000000
#036360:00000000000000000000000000545400
#036370:000000000000000000000000000000000000000000000000000000000000000000000000000000000000000000000000000000000000000000000000000000000000000000000000000000000000000000000000000000000000000000000000000000000000000000000000000000000000000000000000000000000000000000000000000000000000000000000000000000000000000000000000000000000000000000000000000000000000000000000000000000000000000000000000000000000000000000000000000000000000000000000000000000000000000000000000000000000000000000000000000000000000000000000000000000000000000000000000000000000000000000000000000000000000000000000000000000000000000000000000000000000000000000000000000000000000000000000000000000000000000000000000000000000000000000000000000000000000000000000000000000000000000000000000000000000000000000000000000000000000000000000000000000000000000000000000000000000000000000000000000000000000000000000000000000000000000000000000000000000000000000000000000000000000000000000000000000000000000000000000000000000000000000000000000000000000000000000000000000000000000000000000000000000000000000000000000000000000000000000000000000000000000000000000000000000000000000000000000000000000000000000000000000000000000000000000000000000000000000000000000000000000000000000000000000000000000000000000000000000000000000000000000000000000000000000000000000000000000000000000000000000000000000000000000000000000000000000000000000000000000000000000000000000000000000000000000000000000000000000000000000000000000000000000000000000000000000000000000000000000000000000000000000000000000000000000000000000000000000000000000000000000000000000000000000000000000000000000000000000000000000000000000000000000000000000000000000000000000000000000000000000000000000000000000000000000000000000000000000000000000000000000000000000000000000000000000000000000000000000000000000000000000000000000000000000000000000000000000000000000000000000000000000000000000000000000000000000000000000000000000000000000000000000000000000000000000000000000000000000000000000000000000000000000000000000000000000000000000000000000000000000000000000000000000000000000000000000000000000000000000000000000000000000000000000000000000000000000000000000000000000000000000000000000000000000000000000000000000000000000000000000000000000000000000000000000000000000000000000000000000000000000000000000000000000000000000000000000000000000000000000000000000000000000000000000000000000000000000000000000000000000000000000000000000000000000000000000000000000000000000000000000000000000000000000000000000000000000000000000000000000000000000000000000000000000000000000000000000000000000000000000000000000000000000000000000000000000000000000000000000000000000000000000000000000000000000000000000000000000000000000000000000000000000000000000000000000000000000000000000000000000000000000000000000000000000000000000000000000000000000000000000000000000000000000000000000000000000000000000000000000000000000000000000000000000000000000000000000000000000000000000000000000000000000000000000000000000000000000000000000000000000000000000000000000000000000000000000000000000000000000000000000000000000000000000000000000000000000000000000000000000000000000000000000000000000000000000000000000000000000000000000000000000000000000000000000000000000000000000000000000000000000000000000000000000000000054000000000000000000000000000000000000000000000000000000000000000000000000000000000000000000000000000000000000000000000000000000000000000000000000000000000000000000000000000000000000000000000000000000000000000000000000000000000000000000005400000000000000000000000000000000000000000000000000000000000000000000000000000000000000000000000000000000000000000000000000000000000000000000000000000000000000000000000000000000000000000000000000000000000000000000000000000000000000000000000000000000000000000000000000000000000000000000000000000000000000000000000000000000
#036380:000000000000000000000000000000000000000000000000000000000000000000000000000000000000005400005400
#036390:00000000000000000000000000000054
#0363a0:000000000000000000000000000000000000000000000000000000000000000000000000000000000000000000000054
#037390:24
#0363a1:000000000000000000000000000000000014000000000000
#036381:000000000000000000000000000000000000000000000000000000000000000000000054000054000000000000000000
#036391:00000054
#036371:000000000000000000000000000000000000000000000000000000000000000000000000000000000000000000000000000000000000000000000000000000000000000000000000000000000000000000000000000000000000000000000000000000000000000000000000000000000000000000000000000000000000000000000000000000000000000000000000000000000000000000000000000000000000000000000000000000000000000000000000000000000000000000000000000000000000000000000000000000000000000000000000000000000000000000000000000000000000000000000000000000000000000000000000000000000000000000000000000000000000000000000000000000000000000000000000000000000000000000000000000000000000000000000000000000000000000000000000000000000000000000000000000000000000000000000000000000000000000000000000000000000000000000000000000000000000000000000000000000000000000000000000000000000000000000000000000000000000000000000000000000000000000000000000000000000000000000000000000000000000000000000000000000000000000000000000000000000000000000000000000000000000000000000000000000000000000000000000000000000000000000000000000000000000000000000000000000000000000000000000000000000000000000000000000000000000000000000000000000000000000000000000000000000000000000000000000000000000000000000000000000000000000000000000000000000000000000000000000000000000000000000000000000000000000000000000000000000000000000000000000000000000000000000000000000000000000000000000000000000000000000000000000000000000000000000000000000000000000000000000000000000000000000000000000000000000000000000000000000000000000000000000000000000000000000000000000000000000000000000000000000000000000000000000000000000000000000000000000000000000000000000000000000000000000000000000000000000000000000000000000000000000000000000000000000000000000000000000000000000000000000000000000000000000000000000000000000000000000000000000000000000000000000000000000000000000000000000000000000000000000000000000000000000000000000000000000000000000000000000000000000000000000000000000000000000000000000000000000000000000000000000000000000000000000000000000000000000000000000000000000000000000000000000000000000000000000000000000000000000000000000000000000000000000000000000000000000000000000000000000000000000000000000000000000000000000000000000000000000000000000000000000000000000000000000000000000000000000000000000000000000000000000000000000000000000000000000000000000000000000000000000000000000000000000000000000000000000000000000000000000000000000000000000000000000000000000000000000000000000000000000000000000000000000000000000000000000000000000000000000000000000000000000000000000000000000000000000000000000000000000000000000000000000000000000000000000000000000000000000000000000000000000000000000000000000000000000000000000000000000000000000000000000000000000000000000000000000000000000000000000000000000000000000000000000000000000000000000000000000000000000000000000000000000000000000000000000000000000000000000000000000000000000000000000000000000000000000000000000000000000000000000000000000054000000000000000000000000000000000000000000000000000000000000000000000000000000000000000000000000000000000000000000000000000000000000000000000000000000000000000000000000000000000000000000000000000000000000000000000000000000000000000000000054000000000000000000000000000000000000000000000000000000000000000000000000000000000000000000000000000000000000000000000000000000000000000000000000000000000000000000000000000000000000000000000000000000000000000000000000000000000000000000000000000000000000000000000000000000000000000000000000000000000000000000000000000000000000000000000000000000000000000000000000000000000000000000000000000000000000000000000000000000000000000000000000000000000000000000000000000000000000000000000000000000000000000000000000000000000000000000000000000000000000000000000000000000000000000000000000000000000000000000000000000000000000000000000000000000000000
#036361:000000000000000000000000000000000000000000000000000000000000000000000000000000000000000000000000000000000000000000000000000000000000000000000000000000000000000000000000000000000000000000000000000000000000000000000000000000000000000000000000000000000000000000000000000000000000000000000000000000000000000000000000000000000000000000000000000000000000000000000000000000000000000000000000000000000000000000000000000000000000000000000000000000000000000000000000000000000000000000000000000000000000000000000000000000000000000000000000000000000000000000000000000000000000000000000000000000000000000000000000000000000000000000000000000000000000000000000000000000000000000000000000000000000000000000000000000000000000000000000000000000000000000000000000000000000000000000000000000000000000000000000000000000000000000000000000000000000000000000000000000000000000000000000000000000000000000000000000000000000000000000000000000000000000000000000000000000000000000000000000000000000000000000000000000000000000000000000000000000000000000000000000000000000000000000000000000000000000000000000000000000000000000000000000000000000000000000000000000000000000000000000000000000000000000000000000000000000000000000000000000000000000000000000000000000000000000000000000000000000000000000000000000000000000000000000000000000000000000000000000000000000000000000000000000000000000000000000000000000000000000000000000000000000000000000000000000000000000000000000000000000000000000000000000000000000000000000000000000000000000000000000000000000000000000000000000000000000000000000000000000000000000000000000000000000000000000000000000000000000000000000000000000000000000000000000000000000000000000000000000000000000000000000000000000000000000000000000000000000000000000000000000000000000000000000000000000000000000000000000000000000000000000000000000000000000000000000000000000000000000000000000000000000000000000000000000000000000000000000000000000000000000000000000000000000000000000000000000000000000000000000000000000000000000000000000000000000000000000000000000000000000000000000000000000000000000000000000000000000000000000000000000000000000000000000000000000000000000000000000000000000000000000000000000000000000000000000000000000000000000000000000000000000000000000000000000000000000000000000000000000000000000000000000000000000000000000000000000000000000000000000000000000000000000000000000000000000000000000000000000000000000000000000000000000000000000000000000000000000000000000000000000000000000000000000000000000000000000000000000000000000000000000000000000000000000000000000000000000000000000000000000000000000000000000000000000000000000000000000000000000000000000000000000000000000000000000000000000000000000000000000000000000000000000000000000000000000000000000000000000000000000000000000000000000000000000000000000000000000000000000000000000000000000000000000000000000000000000000000000000000000000000000000000000000000000000000000000000000000000000000000000000000000000000000000000000000000000000000000000000000000000000000000000000000000000000000000000000000000000000000000000000000000000000000000000000000000000000000000000000005400000000000000000000000000000000000000000000000000000000000000000000000000000000000000000000000000000000000000000000000000000000000000000000000000000000000000000000000000000000000000000000000000000000000000000000000000000000000000000054000000000000000000000000000000000000000000000000000000000000000000000000000000000000000000000000000000000000000000000000000000000000000000000000000000000000000000000000000000000000000000000000000000000000000000000000000000000000000000000000000000000000000000000000000000000000000000000000000000000000000000000000000000000000000000000000000000000000000000000000000000000000000000000000000000000000000000000000000000000000000000000000000000000000000000000000000000000000000000000000
#036351:000000000000000000000000000000000000000000000000000000000000000000000000000000000000000000000000000000000000000000000000000000000000000000000000000000000000000000000000000000000000000000000000000000000000000000000000000000000000000000000000000000000000000000000000000000000000000000000000000000000000000000000000000000000000000000000000000000000000000000000000000000000000000000000000000000000000000000000000000000000000000000000000000000000000000000000000000000000000000000000000000000000000000000000000000000000000000000000000000000000000000000000000000000000000000000000000000000000000000000000000000000000000000000000000000000000000000000000000000000000000000000000000000000000000000000000000000000000000000000000000000000000000000000000000000000000000000000000000000000000000000000000000000000000000000000000000000000000000000000000000000000000000000000000000000000000000000000000000000000000000000000000000000000000000000000000000000000000000000000000000000000000000000000000000000000000000000000000000000000000000000000000000000000000000000000000000000000000000000000000000000000000000000000000000000000000000000000000000000000000000000000000000000000000000000000000000000000000000000000000000000000000000000000000000000000000000000000000000000000000000000000000000000000000000000000000000000000000000000000000000000000000000000000000000000000000000000000000000000000000000000000000000000000000000000000000000000000000000000000000000000000000000000000000000000000000000000000000000000000000000000000000000000000000000000000000000000000000000000000000000000000000000000000000000000000000000000000000000000000000000000000000000000000000000000000000000000000000000000000000000000000000000000000000000000000000000000000000000000000000000000000000000000000000000000000000000000000000000000000000000000000000000000000000000000000000000000000000000000000000000000000000000000000000000000000000000000000000000000000000000000000000000000000000000000000000000000000000000000000000000000000000000000000000000000000000000000000000000000000000000000000000000000000000000000000000000000000000000000000000000000000000000000000000000000000000000000000000000000000000000000000000000000000000000000000000000000000000000000000000000000000000000000000000000000000000000000000000000000000000000000000000000000000000000000000000000000000000000000000000000000000000000000000000000000000000000000000000000000000000000000000000000000000000000000000000000000000000000000000000000000000000000000000000000000000000000000000000000000000000000000000000000000000000000000000000000000000000000000000000000000000000000000000000000000000000000000000000000000000000000000000000000000000000000000000000000000000000000000000000000000000000000000000000000000000000000000000000000000000000000000000000000000000000000000000000000000000000000000000000000000000000000000000000000000000000000000000000000000000000000000000000000000000000000000000000000000000000000000000000000000000000000000000000000000000000000000000000000000000000000000000000000000000000000000000000000000000000000000000000000000000000000000000000000000000000000000000000000000000000000000000000000000000000000000000000000000000000000000000000000000000000000000000000000000000000000000000000000000000000000000000000000000000000000000000000000005400000000000000000000000000000000000000000000000000000000000000000000000000000000000000000000000000000000000000000000000000000000000000000000000000000000000000000000000000000000000000000000000000000000000000000000000000000000000000000000000054000000000000000000000000000000000000000000000000000000000000000000000000000000000000000000000000000000000000000000000000000000000000000000000000000000000000000000000000000000000000000000000000000000000000000000000000000000000000000000000000000000000000000000000000000000000000000000000000000000000000000000000000000000
#036341:000000000000000000000000000000000000000000000000000000000000000000000000000000000000005400005400
#036331:00000000000000000000000000000054
#036321:000000000000000000000000000000000000000000000000000000000000000000000000000000000000000000000054
#037331:24
#0373b1:00000000000000001300000000000000005300000000000000530000000000000000000000000000000000000000000000000000000000000000000000000000
#037381:000000000000000000000000000000000000000000000000000000000000000000000000000000000000000000000000000000000000000000000000000000000000000000000000000000000000000000000000000000000000000000000000000000000000000000000000000000000000000000000000000000000000000000000000000000000000000000000000000000000000000000000000000000000000000000000000000000000000000000000000000000000000000000000000000000000000000000000000000000000000000000000000000000000000000000000000000000000000000000000000000000000000000000000000000000000000000000000000000000000000000000000000000000000000000000000000000000000000000000000000000000000000000000000000000000000000000000000000000000000000000000000000000000000000000000000000000000000000000000000000000000000000000000000000000000000000000000000000000000000000000000000000000000000000000000000000000000000000000000000000000000000000000000000000000000000000000000000000000000000000535600000000000000000000000000000000000000000000000000000000360000000000000000000000000000000000000000000000000000000056000000000000000000000000000000000000000000000000000000000000000000000000000000000000000000000000000000000000000000000000000000000000000000000000000000000000000000000000000000000000000000000000000000000000000000000000000000000000000000000000000000000000000000000000000000000000000000000000000000000000000000000000000000000000000000000000000000000000000000000000535600000000000000000000000000000000000000000000000000000000360000000000000000000000000000000000000000000000000000000056000000000000000000000000000000000000000000000000000000000000000000000000000000000000000000000000000000000000000000000000000000000000000000000000000000000000000000000000000000000000000000000000000000000000000000000000000000000000000000000000000000000000000000000000000000000000000000000000000000000000000000000000000000000000000000000000000000000000000000000000000000000000000000000000000000000000000000000000000000000000230000000000000000000000000000000000000000000000000000000000000000000000000000000000000000000000000000000000000000000000000000000000000000000000000000000000000000000000000000000000000000000000000000000000000000000000000000000000000000000000000000000000000000000000000000000000000000000000000000000000000000000000000000000000000000000000000000000000000000000000000000000000000000000000000000000000000000000000000000000000000000000000000000000000000000000000000000000000000000000000000000000000000000000000000000000000000000000000000000000000000000000000000000000000000000000000000000000000000000000000000000000000000000000000000000000000000000000000000000000000000000000000000000000000000000000000000000000000000000000000000000000000000000000000000000000000000000000000000000000000000000000000000000000000000000000000000000000000000000000000000000000000000000000000000000000000000000000000000000000000000000000000000000000000000000000000000000000000000000000000000000000000000000000000000000000000000000000000000000000000000000000000000000000000000000000000000000000000000000000000000000000000000000000000000000000000000000000000000000000000000000000000000000000000000000000000000000000000000000000000000000000000000000000000000000000000000000000000000000000000000000000000000000000000000000000000000000000000000000000000000000000000000000000000000000000000000000000000000000000000000000000000000000000000000000000000000000000000000000000000000000000000000000000000000000000000000000000000000000000000000000000000000000000000000000000000000000000000000000000000000000000000000000000000000000000000000000000000000000000000000000000000000000000000000000000000000000000000000000000000000000000000000000000000000000000000000000000000000000000000000000000000000000000000000000000000000000000000000000000000000000000000000000000000000000000000000000000000000000000000000000000000000000000000000000000000000000000000000000000000
#037321:000000000000000000000000000000000000000000000000000000000000000000000000000000000000000000000000000000000000000000000000000000000000000000000000000000000000000000000000000000000000000000000000000000000000000000000000000000000000000000000000000000000000000000000000000000000000000000000000000000000000000000000000000000000000000000000000000000000000000000000000000000000000000000000000000000000000000000000000000000000000000000000000000000000000000000000000000000000000000000000000000000000000000000000000000000000000000000000000000000000000000000000000000000000000000000000000000000000000000000000000000000000000000000000000000000000000000000000000000000000000000000000000000000000000000000000000000000000000000000000000000000000000000000000000000000000000000000000000000000000000000000000000000000000000000000000000000000000000000000000000000000000000000000000000000000000000000000000000000000000000000000000000000000000000000000000000000000000000000000000000000000000000000000000000000000000000000000000000000000000000000000000000000000000000000000000000000000000000000000000000000000000000000000000000000000000000000000000000000000000000000000000000000000000000000000000000000000000000000000000000000000000000000000000000000000000000000000000000000000000000000000000000000000000000000000000000000000000000000000000000000000000000000000000000000000000000000000000000000000000000000000000000000000000000000000000000000000000000000000000000000000000000000000000000000000000000000000000000000000000000000000000000000000000000000000000000000000000000000000000000000000000000000000000000000000000000000000000000000000000000000000000000000000000000000000000000000000000000000000000000000000000000000000000000000000000000000000000000000000000000000000000000000000000000000000000000000000000000000000000000000000000000000000000000000000000000000000000000000000000000000000000000000000000000000000000000000000000000000000000000000000000000000000000000000000000000000000000000000000000000000000000000000000000000000000000000000000000000000000000000000000000000000000000000000000000000000000000000000000000000000000000000000000000000000000000000000000000000000000000000000000000000000000000000000000000000000000000000000000000000000000000000000000000000000000000000000000000000000000000000000000000000000000000000000000000000000000000000000000000000000000000000000000000000000000000000000000000000000000000000130000000000000000000000000000000000000000000000000000000000000000000000000000000000000000000000000000000000000000000000000000000000000000000000000000000000000000000000000000000000000000000000000000000000000000000000000000000000000000000000000000000000000000000000000000000000000000000000000000000000000000000000000000000000000000000000000000000000000000000000000000000000000000000000000000000000000000000000000000000000005600000000000000000000000000000000000000000000000000000000360000000000000000000000000000000000000000000000000000000056530000000000000000000000000000000000000000000000000000000000000000000000000000000000000000000000000000000000000000000000000000000000000000000000000000000000000000000000000000000000000000000000000000000000000000000000000000000000000000000000000000000000000000000000000000000000000000000000000000000000000000000000000000000000000000000000000000000000000000000000005600000000000000000000000000000000000000000000000000000000360000000000000000000000000000000000000000000000000000000056530000000000000000000000000000000000000000000000000000000000000000000000000000000000000000000000000000000000000000000000000000000000000000000000000000000000000000000000000000000000000000000000000000000000000000000000000000000000000000000000000000000000000000000000000000000000000000000000000000000000000000000000000000000000000000000000000000000000000000000000000000000000000000000000000000000000000000000000000000000000
#037351:00000000000000000000000000000000000000000000000000000000000000000000000000000000000000000000005300000000000000530000000000000000
#038351:23
#039321:000000000000000000000000000000000000000000000000000000000000000000000000000000000000000000000000000000000000000000000000000000000000000000000000000000000000000000000000000000000000000000000000000000000000000000000000000000000000000000000000000000000000000000000000000000000000000000000000000000000000000000000000000000000000000000000000000000000000000000000000000000000000000000000000000000000000000000000000000000000000000000000000000000000000000000000000000000000000000000000000130000000000000000000000000000000000000000000000000000000000000000000000000000000000000000000000000000000000000000000000000000000000000000000000000000000000000000000000000000000000000000000000000000000000000000000000000000000000000000000000000000000000000000000000000000000000000000000000000000000000000000000000000000000000000000000000000000000000000000000000000000000000000000000000000000000000000000000000000000000000005600000000000000000000000000000000000000000000000000000000360000000000000000000000000000000000000000000000000000000056530000000000000000000000000000000000000000000000000000000000000000000000000000000000000000000000000000000000000000000000000000000000000000000000000000000000000000000000000000000000000000000000000000000000000000000000000000000000000000000000000000000000000000000000000000000000000000000000000000000000000000000000000000000000000000000000000000000000000000000000005600000000000000000000000000000000000000000000000000000000360000000000000000000000000000000000000000000000000000000056530000000000000000000000000000000000000000000000000000000000000000000000000000000000000000000000000000000000000000000000000000000000000000000000000000000000000000000000000000000000000000000000000000000000000000000000000000000000000000000000000000000000000000000000000000000000000000000000000000000000000000000000000000000000000000000000000000000000000000000000000000000000000000000000000000000000000000000000000000000000000000000000000000000000000000000000000000000000000000000000000000000000000000000000000000000000000000000000000000000000000000000000000000000000000000000000000000000000000000000000000000000000000000000000000000000000000000000000000000000000000000000000000000000000000000000000000000000000000000000000000000000000000000000000000000000000000000000000000000000000000000000000000000000000000000000000000000000000000000000000000000000000000000000000000000000000000000000000000000000000000000000000000000000000000000000000000000000000000000000000000000000000000000000000000000000000000000000000000000000000000000000000000000000000000000000000000000000000000000000000000000000000000000000000000000000000000000000000000000000000000000000000000000000000000000000000000000000000000000000000000000000000000000000000000000000000000000000000000000000000000000000000000000000000000000000000000000000000000000000000000000000000000000000000000000000000000000000000000000000000000000000000000000000000000000000000000000000000000000000000000000000000000000000000000000000000000000000000000000000000000000000000000000000000000000000000000000000000000000000000000000000000000000000000000000000000000000000000000000000000000000000000000000000000000000000000000000000000000000000000000000000000000000000000000000000000000000000000000000000000000000000000000000000000000000000000000000000000000000000000000000000000000000000000000000000000000000000000000000000000000000000000000000000000000000000000000000000000000000000000000000000000000000000000000000000000000000000000000000000000000000000000000000000000000000000000000000000000000000000000000000000000000000000000000000000000000000000000000000000000000000000000000000000000000000000000000000000000000000000000000000000000000000000000000000000000000000000000000000000000000000000000000000000000000000000000000000000000000000000000000000000000000000000000000000000000000000000000000000000000
#039351:00000000000000000000000000000053000000000000005300000000000000002300000000000000000000000000000000000000000000000000000000000000
#0393b1:00000000000000000000000000000000000000000000000000000000000000000000000000000000130000000000000000530000000000000053000000000000
#039381:000000000000000000000000000000000000000000000000000000000000000000000000000000000000000000000000000000000000000000000000000000000000000000000000000000000000000000000000000000000000000000000000000000000000000000000000000000000000000000000000000000000000000000000000000000000000000000000000000000000000000000000000000000000000000000000000000000000000000000000000000000000000000000000000000000000000000000000000000000000000000000000000000000000000000000000000000000000000000000000000000000000000000000000000000000000000000000000000000000000000000000000000000000000000000000000000000000000000000000000000000000000000000000000000000000000000000000000000000000000000000000000000000000000000000000000000000000000000000000000000000000000000000000000000000000000000000000000000000000000000000000000000000000000000000000000000000000000000000000000000000000000000000000000000000000000000000000000000000000000000000000000000000000000000000000000000000000000000000000000000000000000000000000000000000000000000000000000000000000000000000000000000000000000000000000000000000000000000000000000000000000000000000000000000000000000000000000000000000000000000000000000000000000000000000000000000000000000000000000000000000000000000000000000000000000000000000000000000000000000000000000000000000000000000000000000000000000000000000000000000000000000000000000000000000000000000000000000000000000000000000000000000000000000000000000000000000000000000000000000000000000000000000000000000000000000000000000000000000000000000000000000000000000000000000000000000000000000000000000000000000000000000000000000000000000000000000000000000000000000000000000000000000000000000000000000000000000000000000000000000000000000000000000000000000000000000000000000000000000000000000000000000000000000000000000000000000000000000000000000000000000000000000000000000000000000000000000000000000000000000000000000000000000000000000000000000000000000000000000000000000000000000000000000000000000000000000000000000000000000000000000000000000000000000000000000000000000000000000000000000000000000000000000000000000000000000000000000000000000000000000000000000000000000000000000000000000000000000000000000000000000000000000000000000000000000000000000000000000000000000000000000000000000000000000000000000000000000000000000000000000000000000000000000000000000000000000000000000000000000000000000000000000000000000000000000000000000000000000000000000000000000000000000000000000000000000000000000000000000000000000000000000000000000000000000000000000000000000000000000000000000000000000000000000000000000000000000000000000000000000000000000000000000000000000000000000000000000000000000000000000000000000000000000000000000000000000000000000000000000000000000000000000000000000000000000000000000000000000000000000000000000000000000000000000000000000000000000000000000000000535600000000000000000000000000000000000000000000000000000000360000000000000000000000000000000000000000000000000000000056000000000000000000000000000000000000000000000000000000000000000000000000000000000000000000000000000000000000000000000000000000000000000000000000000000000000000000000000000000000000000000000000000000000000000000000000000000000000000000000000000000000000000000000000000000000000000000000000000000000000000000000000000000000000000000000000000000000000000000000000535600000000000000000000000000000000000000000000000000000000360000000000000000000000000000000000000000000000000000000056000000000000000000000000000000000000000000000000000000000000000000000000000000000000000000000000000000000000000000000000000000000000000000000000000000000000000000000000000000000000000000000000000000000000000000000000000000000000000000000000000000000000000000000000000000000000000000000000000000000000000000000000000000000000000000000000000000000000000000000000000000000000000000000000000000000000000000000000000000000000
#040381:23
#041321:0013230000000000
#041351:000000005353000000000000000000000000000000000000
#0413a0:0000132300000000
#041370:000000000000005353000000000000000000000000000000
#041341:0000001300000000
#041371:000000000053230000000000
#041321:0000000000132300
#041351:000000000000000000000000000000005353000000000000
#0413a0:0000000000001323
#041370:000000000000000000000000000000000000005353000000
#041341:0000000000000013
#041371:000000000000000000000053
#042371:23
#042361:000014240000000000000000000000000000000000000000
#042361:000000000014240000000000000000000000000000000000
#042361:000000000000000014240000000000000000000000000000
#042361:000000000000000000000014240000000000000000000000
#0423b0:0013
#042370:000000000000000000000000005300230000000000000000
#042360:000000000000000000000000000000000014240000000000
#042321:00000013
#042361:000000000000000000000000000000000000005300230000
#0433b1:0013230000000000
#043381:000000005353000000000000000000000000000000000000
#043330:0000132300000000
#043360:000000000000005353000000000000000000000000000000
#043391:0000001300000000
#043361:000000000053230000000000
#0433b1:0000000000132300
#043381:000000000000000000000000000000005353000000000000
#043330:0000000000001323
#043360:000000000000000000000000000000000000005353000000
#043391:0000000000000013
#043361:000000000000000000000053
#044361:23
#044361:000014240000000000000000000000000000000000000000
#044361:000000000014240000000000000000000000000000000000
#044361:000000000000000014240000000000000000000000000000
