This file was generated by Ched 2.7.0.0.
#TITLE ""
#ARTIST ""
#DESIGNER ""
#DIFFICULTY 0
#PLAYLEVEL
#SONGID ""
#WAVE ""
#WAVEOFFSET 0
#JACKET ""
#REQUEST "ticks_per_beat 480"
#00002: 4
#BPM01: 108
#00008: 01
#TIL00: ""
#HISPEED 00
#MEASUREHS 00
#00414:14
#00618:14
#00812:14
#04212:00140000
#04214:00000014
#0421a:24
#04218:0024
#01814:14
#01818:0014
#02018:14
#02014:0014
#02214:14
#0221a:0014
#02418:14
#02412:0014
#02719:14
#02713:0014
#0091a:14
#00914:0014
#00910:41
#01018:14
#01012:0014
#01118:14
#01114:0014
#01312:14
#01318:0014
#01414:14
#0141a:0014
#01514:14
#01518:0014
#01510:41
#0251a:14
#0251f:11
#02612:14
#04112:00140000
#04114:00000014
#0411a:24
#04118:0024
#04313:0014001400000000
#04312:0000000000160016
#04319:24240000
#04318:00002626
#0021a:14
#02914:00140000
#0291a:0014
#02918:24
#0291f:21
#03014:14
#03018:00140000
#03012:0014
#03010:41
#0311a:14
#03114:00140000
#03118:0014
#03212:14
#03218:00140000
#03214:0014
#04812:14
#04814:00000014
#04518:14
#0451a:00000014
#04614:14
#04612:00000014
#04610:41
#0471a:14
#04718:00000014
#03314:24140000
#0331a:2414
#03412:1414
#03418:14140000
#0351a:14
#03514:00140000
#03518:0014
#03512:14
#03612:14
#03618:00140000
#03614:0014
#0361a:14
#0501a:14
#05018:0014
#05012:00140000
#05112:14
#05114:0014
#0511a:00140000
#05118:00000014
#05212:14
#0521a:00140000
#05214:0014
#05218:00000014
#0491a:14
#04918:0014
#04912:00140000
#04914:00000014
#02310:41
#04010:41
#0255a:64
#02652:54
#0295a:0014
#03052:0014
#03158:0014
#03254:0014
#04852:64
#04558:64
#04654:64
#0475a:64
#0335a:0014
#03452:0014
#03558:0014
#03654:0014
#0013a0:1424
#003340:1424
#005380:1424
#007320:1424
#0123a0:1424
#016320:1424
#0173a0:14
#017380:00000024
#019320:14
#019340:00000024
#021380:14
#0213a0:00000024
#023340:14
#023320:00000024
#0253a0:14
#025370:00000024
#026320:14
#026350:00000024
#028320:14000024
#0283a1:14000024
#037381:14000024
#0373a1:0000003400000000
#038341:14000024
#038321:0000003400000000
#0393a1:14000024
#039371:0000003400000000
#040321:14000024
#040351:0000003400000000
#045381:14
#0453a1:0024
#046341:14
#046321:0024
#0473a1:14
#047381:0024
#048321:14
#048341:0024
