This file was generated by Ched 2.7.0.0.
#TITLE ""
#ARTIST ""
#DESIGNER ""
#DIFFICULTY 0
#PLAYLEVEL
#SONGID ""
#WAVE ""
#WAVEOFFSET 0
#JACKET ""
#REQUEST "ticks_per_beat 480"
#00002: 4
#BPM01: 149
#00008: 01
#TIL00: ""
#HISPEED 00
#MEASUREHS 00
#00319:14
#00513:14
#00713:14
#01014:14
#0111a:14
#01214:14
#01318:14
#01412:14
#01518:14
#01612:14
#0181a:14
#01912:14
#02012:14
#02118:14
#02218:14
#02314:14
#02414:14
#0251a:14
#02510:41
#02612:14
#02718:14
#02814:14
#0291a:14
#03012:14
#03118:14
#03214:14
#03210:41
#03318:1616
#0331f:11
#03412:1616
#03918:2616
#0391f:21
#04118:1616
#04318:0016
#04412:16
#04418:0016
#04512:16
#04518:0016
#04612:16
#04618:0016
#04712:2616
#04818:1616
#04912:1616
#04910:0041
#05112:0016
#05212:0016
#05218:16
#00119:14
#04012:1616
#04010:41
#05318:26
#0091a:24
#00910:41
#0171a:24
#01710:41
#05412:0026
#035380:14
#036380:24
#037340:14
#038340:24
#042320:1636
#043320:26
#050380:1636
#051380:26
#053380:1636
#054380:26
#055380:1424
#056320:1400000000000024
