This file was generated by Ched 2.7.0.0.
#TITLE "ドラマツルギー"
#ARTIST ""
#DESIGNER ""
#DIFFICULTY 0
#PLAYLEVEL
#SONGID ""
#WAVE ""
#WAVEOFFSET 0
#JACKET ""
#REQUEST "ticks_per_beat 480"
#00002: 4
#BPM01: 149
#00008: 01
#TIL00: ""
#HISPEED 00
#MEASUREHS 00
#05619:0000000000000000001200000000000000000000000000000000000000000000
#05616:00000000000000000012000000000000
#0561c:12
#05613:0000000000000012
#00915:00130000000000130000000013000000
#0091b:00000013001300000000000013000000
#00918:2313
#00912:0000000000130000
#00910:41
#01012:1300001300001300
#01016:00001400001400000000000000000000
#0101b:00000013000000001300000013000000
#01018:0000000000130000
#0171b:00001300000013000000000000000013
#01718:00000000130000000000001300000000
#01713:00000013000000000000000000000000
#01719:0013
#01715:00000000000000130000000000000000
#01712:00000000000000000013000000001300
#01717:23
#01710:41
#01816:13
#01812:00001300000013000000000000000013
#01815:00000000130000000000001300000000
#0181a:00000013000000000000000000000000
#01814:0013
#01818:00000000000000130000000000000000
#0181b:00000000000000000013000000001300
#0191b:13000000000000001300001300000000
#01918:0013131300000000
#01912:00000000000000130000000000000000
#01915:00000013000000000013000000001300
#02019:15
#02012:1513001300130000
#02015:0000130013000013
#0201b:00000013000000130000001300000000
#02018:00000000001300000013000000000000
#02113:0013000000000000
#02114:00130013
#02119:00130000
#0211a:0000001300000000
#0211b:0013
#02116:0013
#02115:0000000000130000
#02212:1300000013000013
#02213:0013001300000000
#02214:00130013
#02219:00130013
#0221b:0000000013000013
#0221a:0000000000130000
#02318:0013000000000000
#02315:0000001300000013
#0231b:0000000000130000
#02415:1300000000000013
#02418:13000000000000000000000000000013
#0381a:14
#03819:0014000000000000
#03818:00140000
#03817:0000001400000000
#03812:00000000000000140000000000000000
#03813:00000000001400000000000000000000
#03814:00000014000000000000000000000000
#03815:00140000000000000000000000000000
#03816:0024
#0371b:00333333133333330000130000001300
#03719:00000012
#03712:26001300000013001633333313333333
#03715:00120000
#03718:16
#0361b:2313000000130013
#03619:00132313
#03612:1300001300000013
#03614:00231323
#03516:0000001313140000
#03514:1400000000001313
#03519:0000000000001313
#03518:00140000
#0351a:14
#03517:0013000000000000
#03512:00140000
#0351b:00000000000000130000000000000000
#0251b:0013131313000013
#02512:24000013000000000000001300000000
#02515:00000000001300000000000000000000
#02513:00000000000000130000000000000000
#02516:00000000000000000013000000000000
#02518:00000000000000000000001300000000
#02510:41
#02612:00001300130013001300000000000013
#0261b:00000013000000000000000000000000
#02618:00000000001300000000000000001300
#0261a:14000000000000130000000000000000
#02615:00000000000000000000000000130000
#02617:00000000000000000013000000000000
#02614:0000000000130000
#02619:00000000000000000000001300000000
#03318:00140000000000002400000000001300
#03312:00000013000000000000000000000000
#03315:0000001300000000
#03314:24000000000000000014000000000000
#0331b:00000000000000000000001300000000
#0331f:11
#0341a:00140000000000002400000000000000
#03412:24000013000000000014000000000000
#03416:0000001300000000
#0341b:00000000000000000000001300000000
#03417:0000000000000013
#03216:0000000000000014
#03218:0013001300000000
#03215:00131300
#0321b:00131300
#03212:1300001300000000
#03210:41
#0031a:14
#00312:00000000000000001500003200000000
#0031c:00000032000000000000000000000000
#00418:16
#0041c:00000032000032000000000000000000
#00514:14
#00518:0015
#00612:16
#00616:00000032000032000000000000000000
#00718:1400000000000026
#00713:0015
#00813:00140000
#00819:0015141312000000
#00814:0000001300000000
#00815:00000000000000001200003300000000
#00812:0015000000002400
#0081a:00000024
#00818:00000000000000000000003300000000
#01118:00130000000000130000000013000000
#01112:00000013001300000000000013000000
#01115:2313
#0111b:0000000000130000
#0121b:1300001300000000
#01216:00001400001400000000000000000000
#01212:00000013000000001300000014000000
#01215:0000000000130000
#01218:00000000000000000000001300000000
#01415:00001313
#0141b:00001313
#01412:13000000001400000000130000000000
#0141a:0014000000000000
#01417:0000001300000000
#01416:00000013000000000000000000000000
#01418:0000000000130000
#01612:00001400000000000000000000000013
#0161a:00000000001400000000000000000000
#01616:0000001300000000
#01617:00000013000000000000000000000000
#0161b:1300000000000013
#01615:00000000000000000033333323000000
#01618:00000000000000000033333323000000
#01315:00130000000000000000000013000000
#01317:00000013001300000000000000000000
#0131b:23000000000000130000000000000000
#01316:0013
#01318:0000000000130000
#01312:0000000000130000
#02718:00000000130000000013000000130000
#02712:00000000000013000000001300000000
#02715:00001300000000001300000000000013
#0271b:13000000000000130000000000000000
#02815:00001300000000130000000000001300
#02813:00130000
#02819:00000013000000000000000000000000
#0281b:00000000001300000000001300000000
#02812:00000000000000000013001300000000
#02818:0013
#02916:0013000013001300
#02912:0000001300000000
#0291b:00000000000000001300001300000000
#02917:00000000000000000000000000000013
#03017:13130000
#0301b:0013000000130000
#03012:0000130000130000
#03015:0000000000000013
#03016:0013
#03115:0000001300000013
#03118:0013000000130013
#03112:00000013
#0311b:00000013
#03917:00000000000000131300000000000000
#03916:00000000000000000000001300000000
#03915:00130000
#03912:0013000000000013
#03914:24
#03918:23240000
#0391f:21
#04012:00001300000000000000001300000000
#0401b:00000000000013000013000000000000
#04016:0013
#04015:0000000000000013
#0401a:00000000000000000000000000130000
#04010:41
#04218:0013001300000000
#04212:00000013000000130000001300000000
#0421b:00000000130000001300001300000000
#04215:00000000001300000013000000001300
#04315:13
#04316:0000001300130000
#04312:0000000013000013
#04317:0013
#0431b:0000001300130000
#04318:13130000
#04314:00000013
#0441b:1313000013000000
#04415:0000001300000013
#04418:0000000000130000
#04418:0000000000130000
#04412:00130013
#0451b:0000130000130000
#04518:0000001300000000
#04515:0000130000130000
#04519:1400000000000014
#04513:1400000000000014
#04512:0000001300000000
#04612:0014141425000000
#0461a:0014141400000000
#04618:0000000000131313
#04615:00000000000000000000001300130013
#04619:0025
#04718:00130000
#04715:00000000000000001300001300000000
#0471b:00000000000000130000000000001300
#0471a:24
#04712:00240000
#04812:00000000000013001300001300000000
#04818:00000013001300000000000000001300
#0481b:00000000000000130013001300000000
#04815:0013130000000000
#05018:00000000001300000000130000000000
#05015:0013001300000013
#0501a:0000000000000013
#05019:00000013
#05013:0000000000130000
#05014:00000013
#0501b:00000013000000130000000000000000
#05012:00131300
#05316:00140000
#05312:1600001300000023
#05318:16
#0531a:0000000000000024
#05414:0013130000000000
#05419:0013130000000000
#0541b:0000001300000000
#05418:0013
#05412:0000001300000000
#05415:0013
#05514:0000001200000000
#0551a:0012
#05515:0000000000120000
#05516:0000000000000012
#0551b:00000012
#00212:16000032000032000000000000000000
#00119:0015
#00112:14000032000000000000000000000000
#0011c:00000000000000000000003200000000
#01518:00130000000000000000000013000000
#01516:00000013001300000000000000000000
#01512:23000000000000130000000000000000
#01517:0013
#01515:0000000000130000
#0151b:0000000000130000
#04116:00000000000000131300000000000000
#04117:00000000000000000000001300000000
#04118:24130000
#0411b:0013000000000013
#04114:00240000
#04115:23
#04915:00130000
#04918:00000000000000001300001300000000
#04912:24000000000000130000000000001300
#0491b:13
#0491a:00240000
#04910:0041
#05117:0000001300130000
#0511b:0000000013000013
#05116:0013
#05112:0000001300130000
#05119:00000013
#05115:26
#05212:1313000013000000
#05218:0000001300000013
#05215:0000000000130000
#05215:0000000000130000
#0521b:00130013
#0095b:00000053
#00955:00530000000000000000000000000000
#01052:0000002300001300
#0105b:00000013
#0205b:00000000000000000000005300000000
#02055:0000000000000013
#02058:0000000000000013
#02252:0000000000000053
#02358:0053000000000000
#02355:0000005300000000
#0235b:0000000000530000
#02455:53
#02458:53
#01758:00000000000000000000005300000000
#01752:00000000000000000053000000000000
#0195b:00000000000000000000005300000000
#01955:00000000000000000053000000000000
#03856:0014
#03758:56
#0375b:00230000
#03752:00005623
#02552:00000000000000000000006300000000
#03354:34
#03358:0044
#03452:34
#0345a:0044
#0035a:64
#00352:0065
#00458:66
#00554:64
#00558:0055
#00652:66
#00758:54
#00753:0065
#00852:00000034
#0085a:00000044
#01158:00630000000000000000000000000000
#01152:00000063
#0125b:0000002300000000
#01252:00000014
#01455:00000013
#0145b:00000013
#02752:00000000000000000000005300000000
#0285b:00000000000000000000005300000000
#02855:0000000000000013
#02858:0000000000000013
#02956:00000053
#03155:0000000000000053
#03252:2300005300000000
#03258:0000005300000000
#0325b:0053
#03255:0053
#03955:00530000
#03957:0000000000000013
#03958:53
#0425b:00000000000000000000002300000000
#04355:53
#0435b:0000000000530000
#04352:0000000000000053
#04358:13
#0445b:0053000000000000
#04455:0000005300000000
#04458:0000000000530000
#04559:4400000000000014
#0455b:0000000000430000
#04552:0000003300000000
#04553:3400000000000014
#0475a:44
#04752:00340000
#04755:00000000000000000000006300000000
#0475b:0000000000000013
#04852:00000000000000000000005300000000
#05352:1600001300000013
#0535a:0000000000000014
#0535b:0000000000130000
#05358:16
#00252:56
#00159:0055
#00152:54
#01855:00000000000000000000006300000000
#0185b:00000000000000000053000000000000
#03057:00630000
#04052:00000000000000000000005300000000
#04158:00630000
#04156:0000000000000013
#04155:63
#04958:00000000000000000000005300000000
#04952:3400000000000013
#0495a:00440000
#05155:16
#0515b:0000000000000063
#05152:0000000000630000
#05252:0063000000000000
#05258:0000006300000000
#05255:0000000000630000
#0545b:0000005300000000
#05458:0053
#05452:0000006300000000
#05455:0063
#04659:0015
#04652:0015
#01658:00000013
#01655:00000013
#001320:14000032000032002200000000000000
#001391:0015
#0013c1:00000000000000000000003200003200
#0023c1:22
#002320:16000032000032000000520000000000
#003320:22
#0033a1:14
#0033c1:00000032000032002200000000000000
#003320:00000000000000001500003200003200
#004320:22
#004381:16
#0043c1:00000032000032000000520000000000
#0053c1:22
#005340:1400000000000000545400000000540000000000000000000000000000000000
#005360:00000000000000000000000032000052005300530052000032000052005300522200000000000000000000000000000000000000000000000000000000000000
#005350:0000000000000000000053000000005300000000000000000000000000000000
#005381:00000000000000000000000000000000000000000000000000000000000000001500000000000000000000003200005254005400535200003200005254005352
#005371:00000000000000000000000000000000000000000000000000000000000000000000000000000000000000000000000000530053000000000000000000530000
#006381:22
#006320:16
#006360:00000032000032000000520000000000
#007360:22
#007381:14000000000000000000000032000052540054005352000032000052540053522200000000000000000000000000000000000000000000000000000000000000
#007371:00000000000000000000000000000000005300530000000000000000005300000000000000000000000000000000000000000000000000000000000000000000
#007330:0015
#007360:00000000000000000000003200002200
#008380:00000000000000000000133300000000
#0083a0:00000024
#008351:00000000000000000000133300000000
#008321:00000024
#009351:00130000000000000000000000000000
#009321:00000000002300000000000000000000
#0093b1:00000013
#010381:23
#010321:0000001300000000
#010351:0000000000230000
#011381:00130000000000000000000000000000
#0113b1:00000000002300000000000000000000
#011321:00000013
#012351:23
#0123b1:0000001300000000
#012381:0000000000230000
#013321:00000013002300000000000000000000
#0133b1:00000013
#014381:23
#0153b1:00000013002300000000000000000000
#015321:00000013
#016351:23
#0163b1:0013
#016381:00000000000000000033333323000000
#016320:0013
#016350:00000000000000000033333323000000
#017320:00000000000000000013000000000000
#017350:00000000000000000000002300000000
#017381:00000000000000000000001300000000
#0173b1:0000000000000023
#0183b1:00000000000000000013000000000000
#018381:00000000000000000000002300000000
#018350:00000000000000000000001300000000
#018320:0000000000000023
#019350:00000000000000000013000000000000
#019320:00000000000000000000002300000000
#0193b1:00000000000000000000001300000000
#019381:0000000000000023
#0203b1:00000000000000000000001300000000
#020381:0000000000000023
#021391:00000013
#0213a1:0000000000000033
#0223b1:23
#022321:0000000000000013
#023351:0023000000000000
#023380:0013000000000000
#0233b0:0000002300000000
#023351:0000001300000000
#023321:0000000000230000
#0233b0:0000000000130000
#023380:0000000000000023
#024350:13
#024320:0022
#024381:13
#0243c1:0022
#025321:00000000000000000000001300000000
#025351:0000000000000023
#027321:00000000000000000000001300000000
#027351:00000000000000000000000000230000
#028381:1323000000000000
#0283b1:00000000000000000000001300000000
#028381:0000000000000023
#0293b1:0013002300000000
#029361:00000013
#030321:23
#030371:00130000
#0303b1:0023
#0303b1:0000000000000013
#031391:23
#031321:0013000000000000
#031341:00230000
#0313a1:0000001300000000
#031381:0023
#031330:0013
#031350:0000000000230000
#031350:0000000000000013
#032320:53
#032350:0023000000000000
#032380:0000001300002300
#0323b0:0033
#032321:0000001300002300
#032351:0033
#0333b1:00000013000023000000000000000000
#033321:00000000000000000000001300002300
#0343c1:00000012000022000000000000000000
#034321:00000000000000000000001200002200
#037381:1626
#0373b1:00333333333333330000000000000000
#037320:00000000000000001633333333333333
#038320:26
#039380:13
#0393b0:0023000000000000
#039350:00130000
#039320:0023
#0393b0:00000000000000000000001300000000
#039370:0000000000000023
#040370:0013000000000000
#040390:00230000
#040341:00130000
#040361:0000002300000000
#040321:00000000000000000000001300000000
#040351:00000000000000000000000000230000
#041351:13
#041321:0023000000000000
#041381:00130000
#0413b1:0023
#041321:00000000000000000000001300000000
#041361:0000000000000023
#0423b1:00000000000000000000001300000000
#042381:0000000000000023
#043351:13
#043321:00230000
#0433b1:0000000000130000
#043371:0000000000000023
#043320:0000000000000013
#044360:0023000000000000
#0443b1:0013000000000000
#044381:0000002300000000
#044350:0000001300000000
#044320:0000000000230000
#044381:0000000000130000
#0443b1:0000000000000023
#047381:00000000000000000013002300000000
#047350:00000000000000000000001300000000
#047320:0000000000000023
#048320:00000000000000000000001300000000
#048350:0000000000000023
#049350:00000000000000000013002300000000
#049381:00000000000000000000001300000000
#0493b1:0000000000000023
#051321:0000000000130000
#051361:0000000000000023
#0513b0:0000000000000013
#052370:0023000000000000
#052321:0013000000000000
#052351:0000002300000000
#052380:0000001300000000
#0523b0:0000000000230000
#052351:0000000000130000
#052321:0000000000000023
#053371:0000001300000000
#0533b1:0000000000230000
#053360:0000000000130000
#053320:0000000000000023
#0543b0:0000001300000000
#054380:0033
#0553c0:22
#054321:0000001300000000
#054351:0033
#055321:22
