This file was generated by Ched 2.7.0.0.
#TITLE "ドラマツルギー"
#ARTIST ""
#DESIGNER ""
#DIFFICULTY 0
#PLAYLEVEL
#SONGID ""
#WAVE ""
#WAVEOFFSET 0
#JACKET ""
#REQUEST "ticks_per_beat 480"
#00002: 4
#BPM01: 149
#00008: 01
#TIL00: ""
#HISPEED 00
#MEASUREHS 00
#05618:0000000000000000001200000000000000000000000000000000000000000000
#05616:00000000000000000012000000000000
#0561a:12
#05614:0000000000000012
#00915:00130000000000001300000000000000
#0091b:00000013000000000000130013000000
#00918:23000000000000130000000000000000
#00912:00000000001300000000000000000000
#00910:41
#01012:13000013
#01015:00000013000000000000000000000000
#01018:1300001300001300
#0101b:00000013000000000000000000000000
#0171b:2313000000000000
#01715:0000131300000000
#01718:0013
#01712:00000000000000000013000000000000
#01710:41
#00813:00001400140014001400003400000000
#00819:00001400140014001400003400000000
#00818:0000000000140000
#00814:0000000000140000
#0081a:00000024
#00812:00000024
#05514:0000001200120012
#0551a:00001212
#01318:0013
#01315:2300000000131300
#01312:00000000000000130000000000000000
#01319:00000033000000000000000000000000
#0141b:13
#01419:00000013000000000000000000000000
#01418:00000013
#01412:0000001300001300
#01416:13
#01414:00000013000000000000000000000000
#01812:1313000000000000
#01818:0000131300000000
#01815:0013
#0181b:00000000000000000013000000000000
#0191b:13
#01918:0013000013000000
#01912:00130000
#01915:00000000000013000013000000000000
#02118:0013131300000000
#02116:0000000000130000
#0211a:00000013
#02112:0013
#02214:13
#0221b:0013000000000013
#02213:00130000
#0221a:0000001300000000
#02219:0000000000130000
#02215:00000013
#02212:0000000013000013
#0231b:0013000000000013
#02316:0013000000000000
#02318:0000001300000000
#02313:0000001300000000
#02315:0000000000130000
#0231a:0000000000130000
#02312:0000000000000013
#02412:1300000000000013
#02418:00000000000000000000000000000013
#0241b:13
#0251b:00001300000000000013000000000000
#02518:0000001300000000
#02512:00130000
#02515:23000000000000001300001300000000
#02510:41
#02618:13000000000000001300001300000000
#02612:00001300000000000013000000000000
#02615:0000001300000000
#0261b:00130000
#02718:00000000130000000013000000000000
#0271b:0000001300000000
#02715:0013000013000000
#02712:13000000000000000000001300000000
#03012:1313000000000000
#03015:0000000013130000
#03018:0000131300000000
#0301b:0000000000000013
#03114:0014
#03118:0013000000000014
#03212:00140000
#03216:0000001400000000
#03210:41
#0351b:13000000000000130000130000000000
#03515:1300000013000013
#03512:00130013
#03518:00130000
#0361b:0013000023000000
#03615:0000001300002300
#03618:2300230000130000
#03612:0000000000000013
#0391b:0013
#03918:23000000000000000000001300000000
#03915:0000000000000013
#03912:2313
#0391f:21
#0401b:0013000000000000
#04019:00130000
#04017:0000001300000000
#04012:0013
#04018:00000000000000000013000000000000
#04015:00000000000000000000001300000000
#04010:41
#04215:0013131313000013
#04218:00000013001300130013000000000000
#04212:00000000000000000000001300000000
#04315:0000001300000013
#04318:0013
#04312:0000000000130000
#0431b:0000000000130013
#04512:0000131300000000
#0451b:0000131300000000
#04518:0000000000130000
#04515:0000000000130000
#04513:14
#04519:14
#04615:0013001300000013
#04618:00130013
#0461b:0000000000130000
#04612:0024
#0461a:0024
#0471b:0013
#04718:00000000240000000000001300001300
#04715:0013
#04712:24000000000000000000001300001300
#0481b:0013001300000000
#04818:00000000130000000013000000000000
#04815:0013000013000000
#04812:00000000000000000000001300000000
#05012:0000000000130000
#05016:00000013
#0501a:0000000000000013
#05018:0013131313000000
#05015:00000013001300130000000000000000
#05118:0000001300130000
#05115:0000000013000013
#05112:26000013
#0521b:13
#05218:0013000000000000
#05212:0000000000000013
#05217:0000000000000013
#05317:1300000000130000
#05316:0000131300000000
#0531b:0000132300000000
#05312:2300000000130024
#0531a:0000000000000024
#05419:0015000000000000
#05414:00150000
#05418:0000001500000000
#05413:0015
#04419:0000000000000013
#04418:0000001300000000
#04412:0000001300000000
#04414:0000000000000013
#0121b:13000013
#01218:00000013000000000000000000000000
#01215:1300001300001300
#01212:00000013000000000000000000000000
#01515:0013
#01518:2300000000131300
#0151b:00000000000000130000000000000000
#01514:00000033000000000000000000000000
#01612:13
#01614:00000013000000000000000000000000
#01617:13
#01619:00000013000000000000000000000000
#0161b:0000001300001300
#01615:00000000000000000000000013000013
#01618:0000000000000013
#02012:13
#02015:0013000013000000
#0201b:00130000
#02018:00000000000013000013000000000000
#02815:00000000130000000013000000000000
#02812:0000001300000000
#02818:0013000013000000
#0281b:13000000000000000000001300000000
#02918:00000000000000001300000000000013
#02915:00000000000000000000001300000000
#0291b:00000013
#03312:14
#0331a:0014
#0331f:11
#03318:24
#03314:0024
#03414:14
#03418:0014
#0341a:24
#03412:0024
#03712:0013
#03718:0013
#0371b:23
#03715:23
#04112:0013
#04115:23000000000000000000001300000000
#04118:0000000000000013
#0411b:2313
#04912:0013
#04915:00000000000000000000001300001300
#04918:0013
#0491b:00000000000000000000001300001300
#0491a:24
#04914:00240000
#04910:0041
#01118:00130000000000001300000000000000
#01112:00000013000000000000130013000000
#01115:23000000000000130000000000000000
#0111b:00000000001300000000000000000000
#03812:0025
#03819:0025
#00114:00000033000000000000000000000000
#0011a:00000000000000000000003300000000
#00212:00000033000033000000000000000000
#00319:00000033000000000000000000000000
#00313:00000000000000000000003300000000
#0041b:00000033000033000000000000000000
#00514:00000033000000000000000000000000
#0051a:00000000000000000000003300000000
#00612:00000033000033000000000000000000
#00719:00000033000000000000000000000000
#00713:00000000000000000000003300000000
#03154:0054
#03158:0053000000000054
#03955:0000000000000013
#03952:53
#03958:53
#04758:00140000
#04752:14
#05152:16
#01058:0000005300000000
#01255:0000006300000000
#01452:0000005300000000
#0165b:0000006300000000
#0245b:53
#02452:53
#02555:00000000000000000000005300000000
#02658:00000000000000000000006300000000
#02752:00000000000000000000005300000000
#0285b:00000000000000000000006300000000
#02858:0000000000000013
#0305b:0000000000000053
#03758:0023
#03752:0023
#03755:53
#0375b:53
#04055:00000000000000000000005300000000
#04158:0000000000000013
#04155:63
#0415b:63
#04252:00000000000000000000005300000000
#04255:0000000000000053
#04352:13
#0435b:0000000000000053
#04355:0000000000000053
#04452:0000005300000000
#04458:0000005300000000
#0455b:0000005300000013
#04558:0000000000530000
#04552:0000006300000013
#04555:0000000000630000
#04559:14
#04553:14
#04852:00000000000000000000005300000000
#0495a:14
#04954:00140000
#05453:0055
#0085a:00000044
#00859:0064
#00858:0000000000240000
#00853:0054
#00854:0000000000240000
#00852:00000034
#02052:0000000000000013
#03852:0015
#03859:0015
#001350:13
#001340:00000033000023000000000000000000
#001390:0013
#0013a0:00000000000000000000003300002300
#002340:13
#002320:00000033000033000000000023000000
#003380:13
#003390:00000033000023000000000000000000
#003340:0013
#003330:00000000000000000000003300002300
#004390:13
#0043b0:00000033000033000000000023000000
#005350:13
#005340:00000033000023000000000000000000
#005390:0013
#0053a0:00000000000000000000003300002300
#006340:13
#006320:00000033000033000000000023000000
#007380:13
#007390:00000033000023000000000000000000
#007340:0013
#007330:00000000000000000000003300002300
#008390:00000000000000001400003400000000
#008380:0000000000340000
#0083a0:00000024
#008331:00000000000000001400003400000000
#008341:0000000000340000
#008321:00000024
#010381:0000001300000000
#0103b1:0000000000230000
#012351:0000001300000000
#012321:0000000000230000
#0133b1:00130000000000000000000000000000
#013391:00000033000000000000000000000000
#013381:00000000002300000000000000000000
#014321:0000001300000000
#014351:0000000000230000
#015321:00130000000000000000000000000000
#015341:00000033000000000000000000000000
#015351:00000000002300000000000000000000
#0163b1:0000001300000000
#016381:0000000000230000
#0173b1:00000000000000000000001300002300
#018321:00000000000000000000001300002300
#0193b1:00000000000000000000001300002300
#020321:00000000000000000000001300002300
#024321:13
#024351:0023
#0243b0:13
#024380:0023
#025350:00000000000000000000001300000000
#025320:0000000000000023
#026380:00000000000000000000001300000000
#0263b0:0000000000000023
#027320:00000000000000000000001300000000
#027350:0000000000000023
#0283b0:00000000000000000000001300000000
#028380:0000000000000023
#029320:0013002300000000
#0293b1:0013002300000000
#0303b1:0000000000000013
#031381:0033000000000000
#0313b1:0000002300000000
#031341:0014
#031321:00000024
#031381:0000000000000014
#0323a1:0024000000000000
#0323a1:00001424
#0333b1:00000013000000000000000000000000
#033381:0000002300000000
#033321:00000000000000000000001300000000
#033351:0000000000000023
#034381:00000013000000000000000000000000
#0343b1:0000002300000000
#034351:00000000000000000000001300000000
#034321:0000000000000023
#037351:13
#037321:0053
#038351:23
#0373b0:13
#037380:0053
#0383b0:23
#039380:13
#0393b0:00230000
#039321:13
#039351:00230000
#040351:00000000000000000000001300000000
#040321:0000000000000023
#041351:13
#041321:00230000
#0413b0:13
#041380:00230000
#042320:00000000000000000000001300000000
#042350:0000000000000033
#043320:23
#0433b0:0000000000000013
#044380:0023000000000000
#043351:0000000000000013
#044321:0023000000000000
#044321:0000001300000000
#044351:0000000000230000
#044380:0000001300000000
#0443b0:0000000000230000
#0453b0:0000001300000023
#045380:0000000000330000
#045321:0000001300000023
#045351:0000000000330000
#048321:00000000000000000000001300000000
#048351:0000000000000023
#052381:0000001300000000
#0523b1:0000000000230000
#052320:0000001300000000
#052350:0000000000230000
#054330:0015
#055320:22
