This file was generated by Ched 2.7.0.0.
#TITLE "ドラマツルギー"
#ARTIST ""
#DESIGNER ""
#DIFFICULTY 0
#PLAYLEVEL
#SONGID ""
#WAVE ""
#WAVEOFFSET 0
#JACKET ""
#REQUEST "ticks_per_beat 480"
#00002: 4
#BPM01: 149
#00008: 01
#TIL00: ""
#HISPEED 00
#MEASUREHS 00
#05619:0000000000000000001200000000000000000000000000000000000000000000
#05616:00000000000000000012000000000000
#05613:12
#0561c:0000000000000012
#0171b:0013000000000000
#01717:00000000130000000013000000000000
#01714:00000013000000000000000000000000
#01716:00000000000013000000001300000000
#01712:2413
#01719:00000000000000130000000000000000
#01715:00000000000000000000000000000013
#01718:0000000000000013
#0171a:24
#01710:41
#0181a:14
#01812:1413000000000000
#01816:00000000130000000013000000000000
#01819:00000013000000000000000000000000
#01817:00000000000013000000001300000000
#0181b:0013
#01814:00000000000000130000000000000000
#01818:00000000000000000000000000000013
#01815:0000000000000013
#01912:1400001313000000
#0191b:00001300130000000013000000000000
#01916:00000013000000000000001300001400
#01917:00000000000000130000000000000000
#0191a:14
#02016:0012000000120000
#02012:14000000120000000000001300000000
#02015:0000001200000000
#02013:0012
#0201c:00000012000000000000000000000000
#02019:00000000001200000000000000000000
#0201b:00000000000000120000001300000000
#02018:00000000000000000012000000000000
#0201a:14
#02415:1300000000000013
#0241b:13000012
#02418:00000000000000000000000000000013
#02417:0012
#02419:0000000000120000
#02414:0000000000120000
#02416:00000012
#02518:00000000001300000000000000001300
#02515:26000000000013000000000000000013
#02512:00000013000000130000001300000000
#0251b:00001300130000000000001300000000
#02516:00000000000000001414000000000000
#02510:41
#02614:0013000000000000
#02612:00000000130000000000000000130000
#02618:0000001300000000
#02616:00000000000000001414000000001414
#02619:00000013000000000000000000000000
#02615:16000000001300000000000000000000
#0261b:00000000000000130000001300000000
#0271b:13000000000013000000001300130000
#02714:0013000000000000
#02716:00000000000000141400000000140014
#02712:00000000130000000013001300000000
#02718:0032000000000000
#05512:1200001200000000
#05515:0012
#05518:0000000000120000
#05517:0000000000000012
#0551b:00000012
#00116:1200000000000012
#00118:0000001212000000
#0011a:00000012000000000000000000000000
#00114:00000000000000000000001200000000
#0011c:12000000000000000000003200000000
#00112:00000032000000000000000000000000
#00216:12
#0021a:00000012000000000000000000000000
#00218:0000001200000000
#00212:00000032000000000000000000000000
#00512:12
#0051a:00000012000000000000000000000000
#0051b:0000001200000000
#00513:0000000000000012
#00514:00000000000000000000001200000000
#0051c:0012
#00612:12
#0061b:00000012000000000000000000000000
#0061c:0000001200000000
#00616:00000032000000000000000000000000
#00712:0012
#00713:0000001200000000
#00714:00000012000000000000000000000000
#0071a:00000000000000000000001200000000
#0071c:12
#00718:0000000000000026
#00812:0016000000002300
#00816:00000000000000000000141400000000
#0081b:00130023
#02812:13000000000013000000001300000000
#0281b:00000000130000000013001300000000
#02816:00000014000000141400000000000000
#02819:0013000000000000
#03318:13130000000000002600000000000000
#03316:00000000001418000000000000140000
#03312:26000013000000000000000000001800
#03315:00000000000000001313000000000000
#0331b:00000000000000000000001300000000
#0331f:11
#03419:12120000000000000000000000000000
#03415:00000000001316001212000000001600
#03412:27000012000000000000000000000000
#0341c:00000000000000000000001200000000
#03418:00000000000000000000000000130000
#03417:0027
#03512:2300001400001300
#0351a:00000000000000140000000000000000
#0351b:00000033230000000013000000130000
#03515:0000000000130013
#03518:00000000000000000000001300000013
#03516:00231400
#03517:23
#0361a:00140000000000000000000000000000
#03614:0014000000000000
#03618:00000014001300000000000000000000
#03612:24131212
#03615:0000001300120012
#0361b:00000000000000130000000000000000
#0361c:00000000000000000012000000000012
#03619:00000000000000000000001200120000
#0371a:00140000000000140000000000000000
#03717:00000014001400000000000000000000
#03712:2c1400142c001300
#03718:00000000000000000013000000130000
#0371b:00000000000000000000001300000013
#03715:0000140000130013
#03818:00120000000000000000000000000000
#03819:00000012000000000000000000000000
#0381a:00000000001200000000000000000000
#0381b:00000000000000120000000000000000
#03815:0012000000000000
#03813:0000001200000000
#03814:00120000
#03812:2c2c
#0091b:00000013000000001300000013000000
#00916:00000000000000130000000013000000
#00915:00130000000000000000000000000000
#00917:0000000000130000
#00912:0000000000130000
#00918:24
#00910:41
#01012:14001213
#01018:00001414000013000000000000000000
#01015:00000000001313000000000000000000
#0101b:0013
#0121b:00000013
#0121a:14
#01214:00001414000000000000000000000000
#01218:00000000001313000000000000000000
#01212:0013
#0121c:0012
#01215:0000001300000000
#01417:0013
#0141a:14000000001400000000140000000000
#01412:0000001800000000
#01416:0014000000000000
#01414:00000000000000000000001400000000
#01418:00000014
#0131c:00000000001200000000000000000000
#01318:24000013000000001300000000000000
#01315:00000000000000130000130000000000
#01312:00000000001200000000000000000000
#01316:0000000000000014
#0131b:0000000000130000
#0161a:00000000000014000000001200000000
#01612:14000000001400001400000000000000
#01618:00000000000000000012000000001300
#01614:0000000000140000
#01616:0014000000002400
#01615:00000000000000000000000000000013
#02116:00001300330033133300330013000000
#0211b:0013000000000000
#02112:0000001313000000
#02113:0000130000130000
#02212:1313
#02216:0013000000130000
#02219:0013000000130000
#0221b:13130013
#02217:0000001300000000
#02214:0000001300000000
#02215:0000000000000013
#0231b:13130013
#02312:0013000013001300
#02318:0013
#0291c:0012001200000000
#02912:0014000014000000
#0291a:00121200
#02918:00000000000000000000001414000000
#02916:00000000000000000000000000000014
#03016:1400130000140000
#03012:0013000013000013
#0301b:0000130000130013
#03017:0013000000000000
#03014:0000001300000000
#0311b:0013000000000013
#03112:0000001300000000
#03118:13121300
#03115:0000130013000013
#0311c:0000000000121200
#03116:12
#03218:12
#03212:12141300
#03217:0000130000000012
#03216:0000001300000000
#0321a:0000001400001400
#03210:41
#03918:00000000260000130000000000000000
#03915:0013
#03912:0000261300000014
#03917:0000000000000013
#03916:24000000000000000000001414000000
#0391a:24
#0391f:21
#0401b:0013001300000000
#04016:00000000140014001400001400000000
#04012:00000000130000000013000000000000
#04018:00000000000000000000000000130000
#04015:0000000000000013
#04010:41
#04215:00000013000000130000000000000000
#04218:0000131316000000
#0421b:00000000001300000000000000000000
#04212:00001300000000000016000000000000
#04216:00000000000000000000001400001300
#04312:1413
#04317:13
#0431b:0000130013000013
#04318:0000001300130000
#04315:0000001300130000
#04418:1200131300000013
#04415:1300000000130000
#04412:0013000013001200
#04416:00120000
#0441c:0012
#0441b:00000013
#04513:14
#04519:1400000000130000
#04516:00000000141400001400000014000000
#04512:0000001400000016
#0451a:0000001400000000
#04514:0000000000130000
#04518:0000000000000016
#0461a:0000001400120000
#04618:00160013
#04616:0018000000000014
#04612:00000000000000000000000000000012
#04613:00000000000000000000000000130000
#04614:00000000000000000000001400000000
#0461c:0022
#0471a:0014000000000000
#04716:00000014000000140000000000001400
#04713:0013
#04712:00000000260014000000001414001300
#0471b:00000000000000000013000000000000
#04718:26240000
#04714:24
#04816:00001300140014001400001400000000
#04812:00130000
#0481a:00000000000000140000000000000000
#0481b:00000000000000000013000000000000
#04815:00000000000000000000000000130000
#04818:0000000000000013
#05018:00000013000000131600000016000000
#05015:0000131300000000
#05012:00000000001300000000160000001600
#0501b:0013000000000000
#05014:00002323
#05019:0000000000230023
#05118:16
#05112:2600121300000013
#05116:0000001414141414
#0511b:0000000000130000
#05113:00000000000000000013000000000000
#0511a:00000000000000000000000000130000
#05318:1600000000000014
#05312:1613
#05316:00000000141400000000140000000000
#05315:0000001600000000
#0531a:0013
#05313:00000013
#0531b:00000013
#05314:0000000000000024
#05412:0014000016141312
#0541a:00000000140000000000001400000000
#05415:0000001200000000
#05419:00000000000000120000000000000000
#05418:00000000000000000016000000000000
#0541b:00000000000000000000000000130000
#0541c:00000000000000000000000000000012
#01112:00000013000000001300000013000000
#01117:00000000000000130000000013000000
#01118:00130000000000000000000000000000
#01116:0000000000130000
#0111b:0000000000130000
#01114:24
#01512:00000000001200000000130000000000
#01515:00000013000000001300000000000000
#01518:00000000000000130000130000000000
#0151c:00000000001200000000000000000000
#01516:0000000000000014
#01514:24
#04115:00000000000000130000000000000000
#04118:00261300
#0411a:0000000000000014
#04116:24000000000000000000001414001300
#0411b:0000001300000000
#04112:24260000
#04912:26001400000000000013000000000000
#04916:00000014000000140000000000001400
#0491a:00000000000014001300001414000000
#0491b:0000000000000013
#04918:24260000
#04914:00240000
#04910:0041
#0521c:1200001200000000
#05212:0000001200000000
#05215:0000000012120000
#05219:0000000012120013
#05217:000000000000000000000000000000000000000000000000000000000000000000000000000000000000000000000000000000000000000000000000000000000000000000000000000000000000000000000000000000000000000000000000000000000000000000000000000000000000000000000000000000000000000000000000000000000000000000000000000000000000000000000000000000000000000000000000000000000000000000000000000000000000000000000000000000000000000000000000000000000000000000000000000000000000000000000000000000000000000000000000000000000000000000000000000000000000000000000000000000000000000000000000000000000000000000000000000000000000000000000000000000000000000000000000000000000000000000000000000000000000000000000000000000000000000000000000000000000000000000000000000000000000000000000000000000000000000000000000000000000000000000000000000000000000000000000000000000000000000000000000000000000000000000000000000000000000000000000000000000000000000000000000000000000000000000000000000000000000000000000000000000000000000000000000000000000000000000000000000000000000000000000000000000000000000000000000000000000000000000000000000000000000000000000000000000000000000000000000000000000000000000000000000000000000000000000000000000000000000000000000000000000000000000000000000000000000000000000000000000000000000000000000000000000000000000000000000000000000000000000000000000000000000000000000000000000000000000000000000000000000000000000000000000000000000000000000000000000000000000000000000000000000000000000000000000000000000000000000000000000000000000000000000000000000000000000000000000000000000000000000000000000000000000000000000000000000000000000000000000000000000000000000000000000000000000000000000000000000000000000000000000000000000000000000000000000000000000000000000000000000000000000000000000000000000000000000000000000000000000000000000000000000000000000000000000000000000000000000000000000000000000000000000000000000000000000000000000000000000000000000000000000000000000000000000000000000000000000000000000000000000000000000000000000000000000000000000000000000000000000000000000000000000000000000000000000000000000000000000000000000000000000000000000000000000000000000000000000000000000000000121200000000000000000000000000000000000000000000000000000000000000000000000000000000000000000000000000000000000000000000000000000000000000000000000000000000000000000000000000000000000000000000000000000000000000000000000000000000000000000000000000000000000000000000000000000000000000000000000000000000000000000000000000000000000000000000000000000000000000000000000000000000000000000000000000000000000000000000000000000000000000000000000000000000000000000000000000000000000000000000000000000000000000000000000000000000000000000000000000000000000000000000000000000000000000000000000000000000000000000000000000000000000000000000000000000000000000000000000000000000000000000000000000000000000000000000000000000000000000000000000000000000000000000000000000000000000000000000000000000000000000000000000000000000000000000000000000000000000000000000000000000000000000000000000000000000000000000000000000000000000000000000000000000000000000000000000000000000000000000000000000000000000000000000000000000000000000000000000000000000000000000000000000000000000000000000000000000000000000000000000000000000000000000000000000000000000000000000000000000000000000000000000000000000000000000000000000000000000000000000000000000000000000000000000000000000000000000000000000000000000000000000000000000000000000000000000000000000000000000000000000000000000000000000000000000000000000000000000000000000000000000000000000000000000000000000000000000000000000000000000000000000000000000000000000000000000000000000000000000000000000000000000000000000000000000000000000000000000000000000000000000000000000000000000000000000000000000000000000000000000000000000000000000000000000000000000000000000000000000000
#05214:0000000000000013
#00318:1200000000000012
#00316:0000001212000000
#00314:00000012000000000000000000000000
#0031a:00000000000000000000001200000000
#0031c:00000032000000000000000000000000
#00312:00000000000000000000003200000000
#00418:12
#00414:00000012000000000000000000000000
#00416:0000001200000000
#0041c:00000032000000000000000000000000
#02052:00000000000000000000005300000000
#0205b:00000000000000000000005300000000
#0205a:54
#02055:0000000000000033
#02058:0000000000000043
#02455:53
#0245b:53
#0195b:00000000000000000053000000000000
#01956:00000000000000000000005300000000
#03852:001c
#02552:00000000000000000000006300000000
#02555:16
#0275b:63
#02752:00530000
#00156:52
#00158:0052
#0015c:12
#00256:52
#0025c:12
#00652:52
#00658:12
#00552:52
#0055c:1262
#00752:0052
#0075c:62
#00756:1200000000000012
#02655:16
#02852:53000000000000000000005300000000
#0285b:00000000630000000000006300000000
#02856:0000000000000012
#02858:0000000000000012
#03358:00530000000000004600000000000000
#03355:00000000000000000063000000000000
#03352:36
#03459:00520000000000000000000000000000
#03455:00000000000000000062000000000000
#03457:0047
#03452:37
#00852:00000033
#0085b:00000043
#0095b:00000053
#01055:0000005300000000
#01052:00002213
#0105b:00000013
#01452:0000005800000000
#01458:00000014
#0135c:00000000002200000000000000000000
#01358:00000053000000005300000013000000
#01352:00000013
#0135b:0000000000530000
#01355:0000000000530000
#01757:00000000000000000053000000000000
#01756:00000000000000000000005300000000
#02156:00000000000000230000000000000000
#0215b:0053000000000000
#02252:5353
#02256:0023000000230000
#0225b:00630053
#02257:0000002300000000
#02255:0000000000000053
#02258:0000000000000043
#0235b:53530053
#02352:0063000053005300
#02358:0043000053000043
#02355:0000003300330000
#02952:0054000054000000
#02958:00000054
#0305b:0000530000130000
#03052:0000000013000053
#0315b:0063000000000053
#03155:0000000053000053
#03156:22
#03158:00220000
#03252:2253
#03258:22
#0325a:0000005400001400
#03256:00000013
#05653:12
#05656:00000000000000000012000000000000
#0565c:0000000000000012
#05659:0000000000000000001200000000000000000000000000000000000000000000
#03956:34
#03952:0000360000000054
#03957:0000000000000013
#04758:46
#04752:0000360000000013
#04756:0000000000000054
#0475b:00000000000000000053000000000000
#04056:00000000000000006400006400000000
#04256:00000000000000000000005400000000
#04252:00000000000000000056000000000000
#04352:54
#04357:43
#04355:0000000000530000
#0435b:0000000000000023
#04458:5200002300000000
#04452:0023000000005200
#04456:00620000
#0445c:0062
#04455:0000000000230000
#04559:44
#04553:34
#04554:0000000000330000
#0455a:0000004400000000
#04552:0000000000000036
#04558:0000000000000046
#04856:00000000000000005400005400000000
#05152:36
#05158:56
#05352:36
#05358:4600000000000054
#05355:0000001600000000
#05356:0000000000140000
#05354:0000000000000034
#05452:0054000000000000
#0545a:00540000
#03557:43
#0355b:00430000
#03556:00330000
#03552:33
#01152:00000063
#01258:0000006300000000
#0125c:0022
#01252:00000033
#0125b:00000043
#01552:00000000002200000000630000000000
#01555:00000063000000006300000013000000
#01558:0000000000630000
#0155b:00000013
#01656:00000014
#01856:00000000000000000063000000000000
#01857:00000000000000000000006300000000
#0415a:0000000000000064
#04156:4400000000000013
#04158:00460000
#0465c:0042
#04952:36000000000000000063000000000000
#04958:00460000
#04956:0000000000000064
#0495b:0000000000000013
#05054:00001313
#05059:0000000000130013
#05252:0000005200000000
#05259:0000000022220000
#05255:0000000022220000
#0525c:0000005200000000
#05257:000000000000000000000000000000000000000000000000000000000000000000000000000000000000000000000000000000000000000000000000000000000000000000000000000000000000000000000000000000000000000000000000000000000000000000000000000000000000000000000000000000000000000000000000000000000000000000000000000000000000000000000000000000000000000000000000000000000000000000000000000000000000000000000000000000000000000000000000000000000000000000000000000000000000000000000000000000000000000000000000000000000000000000000000000000000000000000000000000000000000000000000000000000000000000000000000000000000000000000000000000000000000000000000000000000000000000000000000000000000000000000000000000000000000000000000000000000000000000000000000000000000000000000000000000000000000000000000000000000000000000000000000000000000000000000000000000000000000000000000000000000000000000000000000000000000000000000000000000000000000000000000000000000000000000000000000000000000000000000000000000000000000000000000000000000000000000000000000000000000000000000000000000000000000000000000000000000000000000000000000000000000000000000000000000000000000000000000000000000000000000000000000000000000000000000000000000000000000000000000000000000000000000000000000000000000000000000000000000000000000000000000000000000000000000000000000000000000000000000000000000000000000000000000000000000000000000000000000000000000000000000000000000000000000000000000000000000000000000000000000000000000000000000000000000000000000000000000000000000000000000000000000000000000000000000000000000000000000000000000000000000000000000000000000000000000000000000000000000000000000000000000000000000000000000000000000000000000000000000000000000000000000000000000000000000000000000000000000000000000000000000000000000000000000000000000000000000000000000000000000000000000000000000000000000000000000000000000000000000000000000000000000000000000000000000000000000000000000000000000000000000000000000000000000000000000000000000000000000000000000000000000000000000000000000000000000000000000000000000000000000000000000000000000000000000000000000000000000000000000000000000000000000000000000000000000000000000000000000000000000525200000000000000000000000000000000000000000000000000000000000000000000000000000000000000000000000000000000000000000000000000000000000000000000000000000000000000000000000000000000000000000000000000000000000000000000000000000000000000000000000000000000000000000000000000000000000000000000000000000000000000000000000000000000000000000000000000000000000000000000000000000000000000000000000000000000000000000000000000000000000000000000000000000000000000000000000000000000000000000000000000000000000000000000000000000000000000000000000000000000000000000000000000000000000000000000000000000000000000000000000000000000000000000000000000000000000000000000000000000000000000000000000000000000000000000000000000000000000000000000000000000000000000000000000000000000000000000000000000000000000000000000000000000000000000000000000000000000000000000000000000000000000000000000000000000000000000000000000000000000000000000000000000000000000000000000000000000000000000000000000000000000000000000000000000000000000000000000000000000000000000000000000000000000000000000000000000000000000000000000000000000000000000000000000000000000000000000000000000000000000000000000000000000000000000000000000000000000000000000000000000000000000000000000000000000000000000000000000000000000000000000000000000000000000000000000000000000000000000000000000000000000000000000000000000000000000000000000000000000000000000000000000000000000000000000000000000000000000000000000000000000000000000000000000000000000000000000000000000000000000000000000000000000000000000000000000000000000000000000000000000000000000000000000000000000000000000000000000000000000000000000000000000000000000000000000000000000000000000000000
#00358:62
#00356:0062
#00352:12
#00458:62
#00452:12
#001360:12
#001320:00000032520032002200000000000000
#001381:0012
#0013c1:00000000000000000000003252003200
#0023c1:22
#002360:12
#002320:00000032000032000000000000000000
#003320:22
#003381:12
#0033c1:00000032520032002200000000000000
#003360:0012
#003320:00000000000000000000003252003200
#004320:22
#004381:12
#0043c1:00000032000032000000000000000000
#0053c1:22
#005320:12
#005360:00000000000000000000000032000052005300530052000032000052005300522200000000000000000000000000000000000000000000000000000000000000
#005340:0000000000000000545400000000540000000000000000000000000000000000
#005350:0000000000000000000053000000005300000000000000000000000000000000
#0053c1:0012
#005381:00000000000000000000000000000000000000000000000000000000000000000000000000000000000000003200005254005400535200003200005254005352
#005371:00000000000000000000000000000000000000000000000000000000000000000000000000000000000000000000000000530053000000000000000000530000
#006381:22
#006320:12
#006360:00000032520032000000000000000000
#007360:22
#0073c1:12
#007381:00000000000000000000000032000052540054005352000032000052540053522200000000000000000000000000000000000000000000000000000000000000
#007371:00000000000000000000000000000000005300530000000000000000005300000000000000000000000000000000000000000000000000000000000000000000
#007320:0012
#007360:00000000000000000000003200002200
#007381:0000000000000016
#008381:0026000000000000
#008321:00130000
#008351:0000002300000000
#008380:0000001300000000
#0083b0:0023
#008351:0013
#008321:0000000000230000
#009321:00000013000000000000000000000000
#009341:00000000002300000000000000000000
#009370:00000000001300000000000000000000
#009390:00000000000000230000000000000000
#0093b0:00000013
#009370:0000000000000053
#010370:23
#010350:0000001300230000
#010320:0032
#010381:0000000000130000
#0103b1:00000023
#0113b1:00000013000000000000000000000000
#011391:00000000002300000000000000000000
#011360:00000000001300000000000000000000
#011340:00000000000000230000000000000000
#011320:00000013
#011360:0000000000000053
#012360:23
#012380:0000001300230000
#0123c0:0032
#012351:0000000000130000
#012341:000033
#012331:000000000000000000000000000000000033000000000000
#012321:00000023
#013351:00130000000000000000000000000000
#013321:00000023000000000000000000000000
#013380:00000013000000230000000000000000
#0133c0:00000000003200000000000000000000
#013380:00001323
#0133b0:0000000000330000
#013351:0000000000130000
#013321:00000023
#014321:1424000000000000
#014361:00000014002400000000000000000000
#014321:0000001832220000
#015381:00130000000000000000000000000000
#0153b1:00000023000000000000000000000000
#015350:00000013000000230000000000000000
#015320:00000000003200000000000000000000
#015350:00001323
#015320:0000000000330000
#015381:0000000000130000
#0153b1:00000023
#0163a1:1424000000000000
#016361:00000014002400000000000000000000
#017371:00000000000000000013000000000000
#0173b1:00000000000000000000002300000000
#017360:00000000000000000000001300000000
#017320:0000000000000023
#018360:00000000000000000013000000000000
#018320:00000000000000000000002300000000
#018371:00000000000000000000001300000000
#0183b1:0000000000000023
#0193b1:00000000000000000013000000000000
#019391:00000000000000000000002300000000
#019360:00000000000000000000001300000000
#019320:0000000000000023
#0203a0:14
#020380:0022000000000000
#020320:00000000000000000000001300000000
#020350:00000000000000000000000000532300
#0203b1:00000000000000000000001300000000
#020381:00000000000000000000000000532300
#0213b1:0013000000002300
#021361:00000000330033533300330000000000
#022321:13230000
#022361:0053000000000000
#0223b0:00132300
#022370:0000005300000000
#022321:00001323
#022361:0000000000530000
#0223b0:00000013
#022380:0000000000000023
#022351:0000000000000013
#023321:5353000000000000
#023351:0000532300000000
#0233b0:13
#023380:0023000000000000
#0233b0:0000130000533300
#023380:0000005353000023
#023321:0013
#023351:0000000000230000
#023321:00000013
#023351:0000000000000053
#024351:33
#024321:0052000022000000
#0243b0:13
#024380:0052220000000000
#025321:00000000000000000000001300000000
#025351:00000000000000000000000000532300
#026321:00000000000000000000132300000000
#0273b1:13
#027381:0032220000000000
#027320:00130000
#027360:0000002300000000
#028320:13
#028360:0022000000000000
#0283b0:00130000
#028370:0000002300000000
#028320:00000000000000000000001300000000
#028360:00000000000000000000000000522200
#0283b1:00000000000000000000001300000000
#028381:00000000000000000000000000522200
#029321:0014000000000000
#029371:0000522200000000
#029321:0014
#029361:0000000000522200
#029380:00000014
#0293c0:0000000000000052
#0303c0:22
#0303b0:00130000
#030380:0000005323000000
#030320:0000000000000013
#031360:52
#031320:0023000000000000
#0313b1:0013002300000000
#031381:00520000
#031351:0013
#031321:0000000000522200
#0313b1:0000000000000013
#032381:32
#0323b1:0023000000000000
#031350:0000000000000013
#032320:32
#032350:0023000000000000
#0323a0:0000001400000000
#032360:0023
#032321:0013
#032361:0000000000532300
#033381:00130000000000000000000000000000
#0333b1:00000053002300000000000000000000
#033351:00000000000000000013000000000000
#033321:00000000000000000000005300230000
#034391:00120000000000000000000000000000
#0343c1:00000052002200000000000000000000
#034351:00000000000000000012000000000000
#034321:00000000000000000000005200220000
#035381:0013000000000000
#0353b1:00000033230000000000000000000000
#0393a1:14
#039361:0024000000000000
#039381:00160000
#039351:0000002600000000
#0393b1:00000000000000000013000023000000
#039321:0000000000000014
#040361:0024000000000000
#040361:0014
#0403b1:00000000000000000000002300000000
#040360:00000000000000000000001400000000
#040320:00000000000000000000000000230000
#041320:14
#041360:0024000000000000
#041320:00160000
#041350:0000002600000000
#041320:00000000000000000013000023000000
#0413a0:0000000000000014
#042360:0024000000000000
#042320:00000000000000000016002300000000
#042361:00000000000000000000001400000000
#0423b1:0000000000000023
#043321:14
#043371:00000053230000000000000000000000
#043351:0000000000130000
#043321:0000000000005323
#0433b0:0000000000000013
#044380:52
#0443b0:0023000000000000
#044321:0013002300000000
#044361:00520000
#044380:0000001300230000
#0443c0:0052
#044351:0000000000130023
#044321:00000052
#046321:0013000000000000
#046341:00330000
#046361:0000003300000000
#046381:0023
#047341:14
#047321:0024000000000000
#047381:00140000
#0473a1:0000002400000000
#0473b1:00000000000000000013000000000000
#047371:00000023
#047361:0000000000000014
#0483a1:0024000000000000
#048361:0014
#048321:00000000000000000000002300000000
#048360:00000000000000000000001400000000
#0483b0:00000000000000000000000000230000
#049380:14
#0493a0:0024000000000000
#049340:00140000
#049320:0000002400000000
#049320:00000000000000000013000000000000
#049360:00000023
#049360:0000000000000014
#050320:0024000000000000
#051380:16
#0513c0:00220000
#052320:1200003200000000
#052390:0052
#052370:00000000000000000052000000000000
#052350:0000000000320000
#0523c0:00000022
#0523c1:0012003200000000
#052351:0052
#052371:000000000000000000000000000000000000000000000000000000000000000000000000000000000000000000000000000000000000000000000000000000000000000000000000000000000000000000000000000000000000000000000000000000000000000000000000000000000000000000000000000000000000000000000000000000000000000000000000000000000000000000000000000000000000000000000000000000000000000000000000000000000000000000000000000000000000000000000000000000000000000000000000000000000000000000000000000000000000000000000000000000000000000000000000000000000000000000000000000000000000000000000000000000000000000000000000000000000000000000000000000000000000000000000000000000000000000000000000000000000000000000000000000000000000000000000000000000000000000000000000000000000000000000000000000000000000000000000000000000000000000000000000000000000000000000000000000000000000000000000000000000000000000000000000000000000000000000000000000000000000000000000000000000000000000000000000000000000000000000000000000000000000000000000000000000000000000000000000000000000000000000000000000000000000000000000000000000000000000000000000000000000000000000000000000000000000000000000000000000000000000000000000000000000000000000000000000000000000000000000000000000000000000000000000000000000000000000000000000000000000000000000000000000000000000000000000000000000000000000000000000000000000000000000000000000000000000000000000000000000000000000000000000000000000000000000000000000000000000000000000000000000000000000000000000000000000000000000000000000000000000000000000000000000000000000000000000000000000000000000000000000000000000000000000000000000000000000000000000000000000000000000000000000000000000000000000000000000000000000000000000000000000000000000000000000000000000000000000000000000000000000000000000000000000000000000000000000000000000000000000000000000000000000000000000000000000000000000000000000000000000000000000000000000000000000000000000000000000000000000000000000000000000000000000000000000000000000000000000000000000000000000000000000000000000000000000000000000000000000000000000000000000000000000000000000000000000000000000000000000000000000000000000000000000000000000000000000000000000000000000005200000000000000000000000000000000000000000000000000000000000000000000000000000000000000000000000000000000000000000000000000000000000000000000000000000000000000000000000000000000000000000000000000000000000000000000000000000000000000000000000000000000000000000000000000000000000000000000000000000000000000000000000000000000000000000000000000000000000000000000000000000000000000000000000000000000000000000000000000000000000000000000000000000000000000000000000000000000000000000000000000000000000000000000000000000000000000000000000000000000000000000000000000000000000000000000000000000000000000000000000000000000000000000000000000000000000000000000000000000000000000000000000000000000000000000000000000000000000000000000000000000000000000000000000000000000000000000000000000000000000000000000000000000000000000000000000000000000000000000000000000000000000000000000000000000000000000000000000000000000000000000000000000000000000000000000000000000000000000000000000000000000000000000000000000000000000000000000000000000000000000000000000000000000000000000000000000000000000000000000000000000000000000000000000000000000000000000000000000000000000000000000000000000000000000000000000000000000000000000000000000000000000000000000000000000000000000000000000000000000000000000000000000000000000000000000000000000000000000000000000000000000000000000000000000000000000000000000000000000000000000000000000000000000000000000000000000000000000000000000000000000000000000000000000000000000000000000000000000000000000000000000000000000000000000000000000000000000000000000000000000000000000000000000000000000000000000000000000000000000000000000000000000000000000000000000000000000000000000000000
#052391:0000000000320000
#052321:00000022
#053381:0000000000000014
#0543b1:0023000000000000
#054320:0014000000000000
#054370:00220000
#0543a1:00140000
#054371:0000002200000000
