This file was generated by Ched 2.7.0.0.
#TITLE ""
#ARTIST ""
#DESIGNER ""
#DIFFICULTY 0
#PLAYLEVEL
#SONGID ""
#WAVE ""
#WAVEOFFSET 0
#JACKET ""
#REQUEST "ticks_per_beat 480"
#00002: 4
#BPM01: 149
#00008: 01
#TIL00: ""
#HISPEED 00
#MEASUREHS 00
#00318:0014
#00314:14
#00518:14
#00514:0014
#00714:14
#00718:0014
#01818:1414
#01812:00140000
#01912:1414
#01918:00140000
#02512:14
#0251a:00140000
#02514:0014
#02510:41
#02614:14
#0261a:00140000
#02612:0014
#0271a:14
#02712:00140000
#02718:0014
#02818:14
#02812:00140000
#0281a:0014
#00118:14
#00114:0014
#03813:0014
#03819:0014
#00218:14
#00414:14
#0061a:14
#00914:0014
#00918:26
#00910:41
#01112:14
#01118:0014
#0131a:14
#01312:0014
#01512:14
#0151a:0014
#01714:00140000
#0171a:2414
#01710:41
#02014:1414
#0201a:00140000
#02318:14
#02314:00140000
#0231a:0014
#02312:00000014
#03112:14
#0311a:00140000
#03114:0014
#03118:00000014
#03212:14
#03210:41
#03518:14
#03514:00140000
#0351a:0014
#03512:00000014
#03618:14
#03614:00140000
#0361a:0014
#03612:00000014
#04012:14
#04018:00140000
#04010:41
#03717:00150000001500000015000000150000
#03719:00000015000000150000001500000015
#03718:2515151515151515
#04118:14
#04114:00140000
#04214:14
#04218:00140000
#04918:00140000
#04912:14
#04910:0041
#0501a:14
#05014:00140000
#04812:00140000
#0481a:14
#05518:0000001400140014
#05514:00001414
#05415:0016
#05418:0036363600000000
#05113:14
#05119:14
#05118:0000001400140000
#05112:00001414
#0511a:0000000000000014
#0431a:2400000000140000
#04318:00140000
#04312:2414
#04314:00000014
#0441a:1414
#04412:1400000000140000
#04418:00000014
#04414:00140000
#05214:14
#05212:0000000000000014
#0521a:0014000000000000
#05217:0000001400000000
#04512:14
#04515:00000000341434000000000000000000
#0451a:0000000000000014
#04718:00160000
#04712:16
#04617:00003414340000000000000000000000
#04613:00000014
#04619:00000014
#04618:0000003400000000
#05315:0000143400000000
#05318:0000000000000026
#05312:34
#02418:14
#0331f:11
#0331a:2424
#03314:2424
#03918:26
#03912:00260000
#0391f:21
#03412:2424
#03418:2424
#0211a:0034
#02119:00340000
#02212:0034
#02213:00340000
#05612:000000000000000000000000000035000000000000000000000000340000000000000000000000000000000000000000
#02914:0034
#02913:00340000
#03019:00340000
#03018:0034
#00958:16
#03252:64
#03757:00250000002500000025000000250000
#03759:00000025000000250000002500000025
#03758:6565656565656565
#05358:0000000000000056
#05355:00240000
#05455:0026
#05153:14
#05159:14
#03958:16
#03952:00160000
#04555:00000000002400000000000000000000
#04552:54
#0455a:0000000000000064
#04758:00160000
#04752:16
#04657:00000024000000000000000000000000
#05252:0000000000000054
#0525a:0064000000000000
#05257:0000005400000000
#02458:64
#007320:0000000000000016
#008320:0036363636002600
#010380:14342400
#012340:14342400
#014380:14
#014390:00340000
#0143a0:0024
#016340:14
#016330:00340000
#016320:0024
#021380:14
#021390:00340000
#0213a0:00003424
#022340:14
#022330:00340000
#022320:00003424
#024380:14
#0243a0:0024
#029320:14
#029330:00340000
#029340:00003424
#0303a0:14
#030390:00340000
#030380:00003424
#032320:14
#032340:0024
#037380:1555555555555555
#037370:00550000005500000055000000550000
#037390:00000055000000550000005500000055
#038380:25
#0393a0:00001424
#040320:00001424
#041380:0014
#0413a0:00000024
#042340:0014
#042320:00000024
#045320:1400000000240000
#045350:00000000345434000000000000000000
#0453a0:0000000000000014
#046370:00003454340000000000000000000000
#046380:0000003400000000
#0463a0:0024
#047320:00001424
#0483a0:00001424
#049320:0014
#049340:00000024
#0503a0:0014
#050380:00000024
#0523a0:0014000000240000
#052370:0000003400000000
#052320:0000000000000014
#053320:3400000000240000
#053350:0000343400000000
#053380:0000000000000016
#054380:0036363600000000
#054350:0036
#055380:26
#056320:160000000000000000000000000035000000000000000000000000340000000000000000000000000000230000000000
