This file was generated by Ched 2.6.4.0.
#TITLE ""
#ARTIST ""
#DESIGNER ""
#DIFFICULTY 0
#PLAYLEVEL
#SONGID ""
#WAVE ""
#WAVEOFFSET 0
#JACKET ""
#REQUEST "ticks_per_beat 480"
#00002: 4
#BPM01: 134
#00008: 01
#TIL00: ""
#HISPEED 00
#MEASUREHS 00
#0011a:14
#00212:14
#0141a:14
#0031a:14
#00412:14
#00518:14
#00618:14
#00714:14
#01212:14
#01312:14
#01612:14
#01718:14
#01814:14
#0191a:14
#0241a:14
#02514:14
#02618:14
#02712:14
#03614:14
#03718:14
#03814:14
#03912:0016
#03918:26
#0391f:21
#03910:0041
#04118:1616
#04212:1616
#05816:14
#0591a:14
#06012:16
#04018:16
#04012:0016
#04718:0016
#04712:26
#04912:1616
#05018:1616
#04812:16
#04818:0016
#05712:14
#0321f:11
#00810:41
#01510:41
#05410:41
#02210:41
#02910:41
#008340:14
#009340:24
#010380:14
#011380:24
#0153a0:1424
#020340:14
#021340:24
#0223a0:14
#0233a0:24
#028380:14
#029380:24
#030320:14
#031320:24
#0323a0:14
#033380:24
#034320:14
#035340:24
#043380:1626
#044320:1626
#045380:1626
#046350:1626
#051320:1626
#052380:1626
#053320:1626
#054380:16
#055380:36
#056380:26
#060380:0000000016363626
