This file was generated by Ched 2.6.4.0.
#TITLE ""
#ARTIST ""
#DESIGNER ""
#DIFFICULTY 0
#PLAYLEVEL
#SONGID ""
#WAVE ""
#WAVEOFFSET 0
#JACKET ""
#REQUEST "ticks_per_beat 480"
#00002: 4
#BPM01: 134
#00008: 01
#TIL00: ""
#HISPEED 00
#MEASUREHS 00
#01512:15000000000015250000000000000000
#01519:00000000150015250000000000000000
#01513:0000000000130000
#0151a:0000000000130000
#01518:0000000000001313
#01515:00000000000000000000000000130000
#01510:41
#00712:0013000000000000
#00716:0000001313000000
#00717:0013130000000000
#0071b:0000001300000000
#00814:0000131300000000
#00817:0000000013000013
#00812:0013
#00819:00130000
#00816:23000000000000000000001300000000
#0081b:2313000000000000
#00810:41
#00914:00130000
#00917:0000001300000000
#0091b:0013000000000000
#00916:0013000000000000
#00919:00130000
#00912:0000001300000000
#01618:0000000000130000
#01615:00001313
#01617:1300001300000013
#01612:1300000000000013
#01616:0013000000000000
#0161b:00130000
#01714:0013000000000000
#01716:00130000
#01712:0000001300130000
#01719:00000013
#0171b:0000000000000013
#01717:0000000000130000
#01715:0000000000000013
#03518:00000000000000130000000000001300
#03515:00000000000000001300000000000013
#0351b:13
#03512:00130000
#03517:0013000000000000
#00515:00001313
#00518:13000013000000000000130000000000
#00512:0000130000000013
#0051b:00000000000000130000000000001300
#00115:0000001300130013
#00118:0013000000001300
#0011b:1300000000000013
#00112:0013
#00212:1300001300130013
#00218:0013000000000000
#00216:00001313
#00217:0000000000000013
#03915:0000000000130000
#03915:0000000000130000
#03918:00000013
#03918:00000013
#03916:1300000000000013
#0391b:2300130000000013
#03912:0013000013001300
#0391f:21
#03910:0041
#04015:0000000000000013
#04012:0013000000000000
#04017:1300001300130000
#0401b:00001313
#03818:0000000000130013
#03815:00000013
#03812:0025252525000000
#03819:0025252525000000
#0441b:00000013
#04412:0013000000001300
#04418:0000001300000013
#04415:0000000000000013
#04416:00130000
#04417:13
#0451b:0013000013001300
#04515:0000001300000000
#04518:0000000000130000
#04512:00130013
#0111b:0013000000000000
#01112:00130013
#01116:0013000000000000
#02012:14141414
#02014:001400000000001400000000
#02016:000014000014000014000014
#0201a:14141414
#02018:000014000014
#0231a:0013000000330000
#02312:13
#02315:0000001300000000
#02318:0000001300000000
#0231b:13
#02313:0033000000330000
#02418:0000000000130000
#02415:00000013
#02416:1313
#0241b:1300000000000013
#02412:0000000000000013
#02417:00130000
#02419:0013000000000000
#02414:0000001300000000
#02512:0013000000130000
#02514:00130000
#02516:0000001300000000
#02517:0013000000000000
#0251b:0000000000000013
#03617:00130000
#03616:0000001300000000
#03612:13000013000000001300000000000000
#0361b:1300001300000000
#04615:0000000000130013
#04618:00000013
#04619:15000000000015250000000000000000
#04612:00000000150015250000000000000000
#05115:0000000000130013
#05118:0000000000000013
#0511b:00000013130000000000000013000000
#05117:00000000000000131300000000000000
#05119:14
#05113:14
#05116:00130000
#05112:00000013
#03216:13
#0321b:130000000000000000000013
#0321f:11
#04312:00130013
#04314:0000000000130000
#04316:0000000013000013
#0431b:0000000000000013
#04313:14
#04319:14
#04317:00130013
#0421b:0013000000001300
#04216:1300001300130014
#04212:00001313
#00015:0000000000000013
#00018:00000013
#00012:0000000000130000
#0211b:00000013000000001300000013000000
#02115:00001300000013000013000000130000
#02118:00130000001300000000130000001300
#02112:13000000130000000000001300000000
#0281b:13131313
#02812:13131313
#02815:001300000013001300000013
#02818:001313001313
#03119:0013001300130000
#0311b:00130000
#03117:0013
#03115:0013000000001300
#03112:0000001300130000
#04712:2300001300001300
#04712:00000013
#04718:13
#0471b:0013000013000013
#04715:00130000
#04716:0013000000000013
#04717:0000001300001300
#04719:0000000000130000
#05812:1300000000000013
#05817:1313
#05816:00130013
#05814:0013000000130000
#05819:0000001300000013
#00617:13
#0061a:0000001400000014
#00612:0013000000140000
#00616:00131414
#01019:00130000
#01016:0000000013000013
#0101b:0013
#01014:00130000
#01017:13000000000000000000001300000000
#01012:13
#01013:0013000000000000
#0101a:0000001300000000
#01918:00000013
#01919:0013000000000000
#01917:00130000
#0191b:0000001300000000
#01915:00000013
#02217:0000001300000013
#02212:0000001313000013
#02216:0013000000130000
#0221b:0013130000131300
#02210:41
#02715:00000013
#0271b:0013000000000000
#02719:00130000
#02717:0000001300000000
#02716:0013000000000000
#02718:00000013
#0291b:13000000000000000000000000130000
#02916:00130000000000000000000013000000
#02919:00001300000000000000001300000000
#02914:00000013000000000000130000000000
#02915:0000001600000016
#02912:00000000001300001300000000000000
#02917:00000000130000000013000000000000
#02910:41
#03712:00001300130000001300000013000013
#03718:00001300000000000013000000130000
#03715:0000001300130013
#0371b:13000000130013000000001300000013
#04819:0000000000000013
#04817:13
#04812:13001313
#0481b:00130000
#04816:0000001300130000
#05417:00001300000000000000001300000000
#05412:23000000000013000000001300000000
#0541b:1313
#05415:00130000
#05410:41
#00318:0000001300130013
#00315:0013000000001300
#00312:1300000000000013
#0031b:0013
#00415:0013000000000000
#0041b:1300001300000000
#01219:00130000
#01216:0000000013000013
#0121b:0013
#01214:00130000
#01217:13000000000000000000001300000000
#01213:0013000000000000
#0121a:0000001300000000
#01212:13
#01319:00130000
#01316:0000001300130000
#01312:0013000013000000
#01317:0013000000000013
#01314:00130000
#0131b:0000001300001300
#01414:00130000
#01417:0000000013000013
#01412:0013
#01419:00130000
#01416:13000000000000000000001300000000
#0141b:13
#0141a:0013000000000000
#01413:0000001300000000
#01815:0000000000130000
#01818:00001313
#01816:1300001300000013
#0181b:1300000000000013
#01817:0013000000000000
#01812:00130000
#02615:0000000000130000
#02618:00000013
#02617:1313
#02612:1300000000000013
#0261b:0000000000000013
#02616:00130000
#02614:0013000000000000
#02619:0000001300000000
#0301b:0000001313000013
#03012:0013130000131300
#03016:0000000000000013
#03312:000000000000000000000013
#03418:000000000000000000000013
#0411b:00000000000000131300000013000000
#04116:00130000
#04112:1300000013000013
#04117:1300000000000013
#04118:0000000000130000
#04118:0000000000130000
#04115:00000013
#04115:00000013
#04912:00001313
#04917:00130000
#0491b:1300000000000013
#04916:1300000000000013
#04915:0000000000130000
#04915:0000000000130000
#04918:00000013
#04918:00000013
#05012:0013000000001300
#05017:1300001300130000
#0501b:00001313
#05016:0000000000000014
#0521b:1313
#05215:0013000000130000
#05212:00130013
#05218:0000001300000013
#05315:0013130000000013
#05318:0000001313000000
#05312:0000000000131300
#0531b:0000000000000013
#05517:0000000000130000
#0551b:0000001313001300
#05516:00001313
#05512:0013000000130013
#05616:00001300000000000000001300000000
#0561b:13000000000013000000001300000000
#05612:1313
#05618:00130000
#05716:0000000000130000
#05712:0000001313001300
#05717:00001313
#0571b:0013000000130013
#0591b:13130013
#05916:1300001300000013
#05917:0013000000130000
#05912:0013
#06012:1300000000130023
#0601b:00131313
#06016:0000001414141424
#02352:53000033
#0235a:0063000000000000
#02358:0000002300000000
#02355:0000002300000000
#0235b:00000043
#03956:63
#0395b:0000530000000063
#03952:0023000000000000
#02158:0000000000000013
#02155:0000001300000000
#03159:0063006300530000
#03157:0023
#0315b:00230000
#03155:00000013
#04758:53
#0475b:0023000000000053
#04755:00630000
#04752:0000002300000000
#04756:0000000000000053
#05852:1313
#00552:0000530000000033
#0055b:0000000000000053
#0065a:0000005400440044
#00657:23
#0065b:0043000000000000
#00652:0063003300640034
#00656:00232424
#00857:0053
#00856:00000000000000000000005300000000
#00852:0000000000000013
#01657:0000002300000053
#01656:0023000000000000
#01652:53
#0165b:00630000
#02456:63
#02457:00630000
#0245b:0000000000000053
#0355b:53
#03552:00530000
#03555:0013
#03557:0023000000000000
#04455:0000000000000053
#0445b:0043000000000000
#04452:0053003300000000
#04457:23
#04456:00230000
#05158:0000000000000053
#05156:00630000
#05155:0000000000000043
#01056:0063
#01057:00000000000000000000006300000000
#0105b:0000000000000013
#02955:0000001600000016
#04052:0013000000000000
#04057:23
#0435b:0000000000000063
#04357:00530000
#04356:0000000000000033
#05452:00000000000023000000006300000000
#05457:00002300000000000000006300000000
#05455:00630000
#0545b:6313
#05456:0000000000000013
#01958:00000013
#01952:0000001300000000
#02755:00000013
#02757:0000001300000000
#02756:0023000000000000
#00155:0000000000000053
#00252:23
#00258:0043000000000000
#00455:0033000000000000
#0045b:23
#00358:0000000000000063
#01152:00000013
#01256:0063
#01257:00000000000000000000006300000000
#0125b:0000000000000013
#01457:0053
#01456:00000000000000000000005300000000
#01452:0000000000000013
#0175b:0000001300000000
#01856:0000002300000063
#0185b:63
#01857:0023000000000000
#01852:00530000
#02557:0023000000000000
#02556:0000001300000000
#02657:53
#02656:00530000
#02652:0000000000000063
#03252:000000000000000000000013
#0335b:000000000000000000000013
#03452:000000000000000000000013
#0365b:53
#04156:00630000
#04157:53
#04152:0000000000000053
#0425b:0013000000000000
#04256:2300000000000014
#04857:23
#0485b:0043000000000000
#04852:23
#04856:0043000000000000
#04957:00530000
#04956:63
#0495b:0000000000000063
#05052:0013000000000000
#05057:23
#05056:0000000000000014
#0525b:2323
#05258:0033005300330033
#05255:0063004300630043
#05252:00230023
#05557:0000000000530000
#0555b:00005353
#05656:00002300000000000000005300000000
#0565b:00000000000023000000005300000000
#05652:5313
#05658:00530000
#05657:0000000000000013
#05756:0000000000630000
#05752:00006363
#05958:0013
#0595b:13
#06052:63
#001320:13
#001350:00230000
#001381:00130000
#0013b1:0023
#001351:0000000000000013
#002321:53
#002351:0023000000000000
#002371:0000001300330000
#0023b1:00003323
#0033b1:13
#003381:00230000
#003350:00130000
#003320:0023
#003380:0000000000000013
#0043b0:53
#004380:0023000000000000
#004320:0000001323000000
#004381:0000000013230000
#004350:0000000000132300
#0043b1:0000000000001323
#004320:0000000000000013
#005320:23
#005320:00130000
#005350:00000000000000230000000000000000
#0053b0:0000000000000013
#006370:53
#0063b0:0023000000000000
#006321:0013002300000000
#006361:00530000
#0063a0:0000001400240000
#006360:0054
#006321:0000000000140024
#006361:00000054
#007321:0000000000130000
#007351:00000023
#0073b0:0000000000130000
#007380:00000023
#008370:0013
#0083b0:00000000000000000000002300000000
#008361:00000000000000000000001300000000
#008321:0000000000000023
#0093b1:0013
#009371:0000000000230000
#009360:0013
#009320:0000000000230000
#009320:00000013
#009360:0000000000000023
#009371:00000013
#0093b1:0000000000000023
#010361:0013
#010321:00000000000000000000002300000000
#010370:00000000000000000000001300000000
#0103b0:0000000000000023
#011370:00132300
#011321:0013
#011361:0000000000230000
#0113b0:0000000000130000
#011370:00000023
#012360:0013
#012320:00000000000000000000002300000000
#012371:00000000000000000000001300000000
#0123b1:0000000000000023
#013371:0013
#0133b1:0000000000230000
#013361:00000013
#013321:0000000000000023
#014371:0013
#0143b1:00000000000000000000002300000000
#014360:00000000000000000000001300000000
#014320:0000000000000023
#015390:1525000000000000
#015321:0015250000000000
#016321:13230000
#016361:0053000000000000
#0163b0:00132300
#016370:0000005300000000
#016370:0000000000000013
#0173b0:0000002300000000
#0183b0:13230000
#018370:0053000000000000
#018321:00132300
#018361:0000005300000000
#018361:0000000000000013
#019321:0000002300000000
#023321:13000023
#023331:0033000000330000
#023351:0000003300000000
#0233a0:0013000000330000
#023380:0000003300000000
#0233b0:00000023
#024360:13
#024320:00230000
#024371:00130000
#0243b1:0023
#0243b1:0000000000000013
#025371:0053000000000000
#0253b1:0000002300000000
#025371:0000000000130000
#0253b1:00000023
#025360:0000000000001323
#026370:13
#0263b0:00230000
#026361:00130000
#026321:0023
#026321:0000000000000013
#027361:0053000000000000
#027321:0000002300000000
#030371:0013230000000000
#030361:0000001323000000
#030371:0000000000132300
#031391:0013003300330000
#0313b1:00530023
#031371:0053
#0323b1:000000132300000000000000
#032350:000000001323000000000000
#032381:000000000013230000000000
#032320:000000000000132300000000
#0323b1:000000000000001323000000
#032350:000000000000000013230000
#032381:000000000000000000132300
#032320:000000000000000000001323
#033320:000000132300000000000000
#033381:000000001323000000000000
#033350:000000000013230000000000
#0333b1:000000000000132300000000
#033320:000000000000001323000000
#033381:000000000000000013230000
#033350:000000000000000000132300
#0333b1:000000000000000000001323
#034381:000000132300000000000000
#034350:000000001323000000000000
#0343b1:000000000013230000000000
#034320:000000000000132300000000
#034381:000000000000001323000000
#034350:000000000000000013230000
#0343b1:000000000000000000132300
#034320:000000000000000000001323
#0353b0:13230000
#035370:0053000000000000
#035321:00130000
#035351:00000000000000230000000000000000
#0363b1:13
#036371:00000023000000000000000000000000
#0363b1:0013
#036381:0000000000230000
#036350:0000000000130000
#036320:00000023
#036381:00000013
#0363b1:0000000000000023
#036320:0000000000000013
#037350:23
#039360:13230000
#039320:0053000000000000
#0393b1:00130000
#039371:0023
#0393b1:0000000000000013
#040371:53
#0403b1:0023000000000000
#040321:0000001300000000
#040361:0023
#040321:0000000000130000
#040361:00000023
#041371:13
#0413b1:00230000
#041360:00130000
#041320:00000000000000230000000000000000
#041320:0000000000000013
#042360:53
#042320:0023000000000000
#0423b0:0000001300230000
#042370:0033
#043370:00130000
#0433b0:0023
#0433b0:0000000000000013
#044370:53
#0443b0:0023000000000000
#044321:0013002300000000
#044361:00530000
#044351:0000000000000013
#045321:0023000000000000
#045381:0000132300000000
#045351:0000000013230000
#046321:1525000000000000
#046390:0015250000000000
#047380:13230000
#0473b0:0033000000000000
#047351:00132300
#047321:0000003300000000
#0473b1:0000000000000013
#048371:53
#0483b1:0023000000000000
#047360:0000000000000013
#048320:53
#048360:0023000000000000
#0483b0:0000001300000000
#048370:0023
#0483b0:0000000000130000
#048370:00000023
#049360:13
#049320:00230000
#049371:00130000
#0493b1:0023
#0493b1:0000000000000013
#050371:53
#0503b1:0023000000000000
#050321:0000001300230000
#050361:0033
#051361:00130000
#051321:0023
#051381:0000000000000013
#0523b1:53
#052381:0023000000000000
#052350:0013002300000000
#052320:00530000
#052381:0000001300230000
#0523b1:0053
#052350:0000000000130023
#052320:00000053
#0533b0:0013000000000000
#053380:00230000
#053320:0000001300000000
#053350:0023
#053380:0000000000130000
#0533b0:00000023
#0543b0:13230000
#054370:0053000000000000
#054351:00132300
#054321:0000005300000000
#054321:00000000000000000000001300000000
#054361:0000000000000023
#054370:00000000000000000000001300000000
#0543b0:0000000000000023
#055380:0013230000000000
#055351:0000132300000000
#0553b1:00001333
#055371:0000000000330023
#056321:13230000
#056361:0053000000000000
#056380:00132300
#0563b0:0000005300000000
#0563b0:00000000000000000000001300000000
#056370:0000000000000023
#056361:00000000000000000000001300000000
#056321:0000000000000023
#057351:0013230000000000
#057380:0000132300000000
#057320:00001333
#057360:0000000000330023
#0583b0:0013230000000000
#058320:0000001323000000
#0583b0:0000000000132300
#059320:0013000000000000
#059350:00230000
#0593b0:0000001300000000
#059380:0023
#059320:0000000000130000
#059350:00000023
#0593b0:0000000000000013
#060380:23
#060321:13
#060361:00230000
