This file was generated by Ched 2.6.4.0.
#TITLE ""
#ARTIST ""
#DESIGNER ""
#DIFFICULTY 0
#PLAYLEVEL
#SONGID ""
#WAVE ""
#WAVEOFFSET 0
#JACKET ""
#REQUEST "ticks_per_beat 480"
#00002: 4
#BPM01: 134
#00008: 01
#TIL00: ""
#HISPEED 00
#MEASUREHS 00
#00512:0000000000000013
#00518:0000000013000013
#0051b:00130013
#00515:0000000000130000
#0581b:1313
#05812:0013000000130000
#05818:00130013
#05815:1300001300000013
#06015:00130000
#06018:0000000016160000
#06012:1300000000001626
#0601b:13
#0111b:0013000000000000
#01115:00130000
#01118:00001313
#01112:0000000000130000
#00012:0000000000130000
#00018:00000013
#00015:0000000000000013
#0401b:0000001300000013
#0401b:0000000000000013
#04012:0013
#04018:0000000000130000
#04015:00000013
#00115:0000000000130000
#00118:00000013
#0011b:0013
#00318:0000000000130000
#00315:00000013
#00312:0013
#0021b:0000001300000000
#00215:0013
#00218:0000000000130013
#00212:00000013
#0041b:00000013
#00412:0000000000130000
#00415:0000001300000013
#00418:0013
#00618:0013000000000000
#00619:0000001300000000
#0061a:0000000000130000
#0061b:0000000000000013
#00612:0013000000000000
#00613:0000001300000000
#00614:0000000000130000
#00615:0000000000000013
#00712:0013000000131300
#00718:0000001300000000
#0071b:0000130000131300
#00715:0013
#00818:00000000130000000000001400000000
#00814:0000000000000014
#00812:2314
#0081b:23
#00810:41
#0121b:13
#01212:13
#01215:00130000
#01214:00000000000000000000001400000000
#01218:0000000000000014
#0121a:0014
#01315:0013000000000000
#01312:0013
#01314:00330033
#01313:0000003300330000
#01612:0000000000130000
#01618:00001313
#01712:0000000000130000
#01718:00000013
#01715:0000001300000013
#0171b:00130000
#01915:00000013
#01912:00130000
#01918:0000001300000000
#02115:13333300000000000000000000000000
#02118:00000000000000001333330000000000
#02112:00000033333300000000000000000000
#0211b:00000000000000000000003333330000
#02318:13
#0231a:0000003300000000
#0231b:0000000000330000
#02319:0033000000000000
#02212:0000001300000013
#02215:0013000000130000
#02218:00130013
#0221b:0013
#02210:41
#02412:1300000000130000
#02418:00001313
#02415:0000000000000013
#02512:0000000000130000
#02518:00000013
#02515:0000001300000013
#0251b:00130000
#02718:00000013
#02718:00000013
#02712:0000001300000000
#0291b:13333333000000000000000000000000
#02912:00000000000000001333333300000000
#02918:00000000333300000000000000000000
#02915:00000000000000000000000033330000
#02910:41
#03115:0013000000000000
#03113:0000003300000000
#03112:0000000000330000
#0301b:0000001300000013
#03018:0013000000130000
#03015:00130013
#03012:0013
#03218:00000013
#03215:000000000013
#0321b:000000000000000000000013
#03214:14
#0321f:11
#03315:00130013
#03318:000000000013
#03312:000000000000000000000013
#0331b:0013
#03314:003300
#0331a:000000000000003300000000
#03515:13000000000000001300000000000013
#03518:00000000000000130000000000001300
#0341b:000000130013000000130000
#03415:000013000013
#03412:000000131300
#03418:000000000000001300000013
#03815:0000230000130013
#03818:0000002300001300
#03812:0023000023000000
#0381b:0023000023000000
#03918:00000013
#03915:0000000000130013
#0391b:2313
#0391f:21
#03910:0041
#04118:0000000000130013
#04115:00000013
#04112:1313
#04415:00000013
#0441a:0000001400000000
#04416:0014000000000000
#04312:0000000000000014
#04318:00000013
#04315:0000000000130000
#0431b:00131300
#0421b:00000013
#04215:0000000000130000
#04212:0000001300000013
#04218:0013
#04518:00130000
#04512:00000013
#0451b:00000013
#04615:13130013
#04618:0013001600130013
#04612:00000000000000260000000000000000
#0511b:0000000000000013
#05115:00000013
#05118:0000130000130000
#05112:00131300
#05012:00000013
#0501b:0000000000130000
#05018:0000001300000000
#05015:0013
#05318:00130013
#05312:0013001300000000
#0531b:0013
#05315:0000000000130000
#05218:0000001300000000
#05212:0013000000000013
#0521b:0000000000000013
#05215:0000000000130000
#05418:00130000
#0541a:00000000000000000000001400000000
#05414:0000000000000014
#05412:2314
#0541b:23
#05410:41
#05612:13000000000000000000001400000000
#05615:00130000
#0561a:0014
#05618:0000000000000014
#0561b:13
#0551b:0013000000000000
#05517:0013
#05519:00330033
#05518:0000003300330000
#00918:0013000000000000
#0091b:0013
#00919:00330033
#0091a:0000003300330000
#02812:00000013
#0281b:0013
#02815:00130000
#02818:13
#02819:003300000000000000000000
#02814:003300
#0281a:000000000000003300000000
#02813:000000000033
#01412:1314
#0141b:13
#01414:0000000000000014
#01418:00000000130000000000001400000000
#01518:13000000130000260000000000000000
#01515:0013000000000000
#01512:0000001600000000
#01510:41
#0101b:13
#01012:13
#0101a:0014
#01018:0000000000000014
#01014:00000000000000000000001400000000
#01015:00130000
#0181b:0000000000130000
#01815:00001313
#0261b:1300000000130000
#02615:00001313
#02618:0000000000000013
#03715:13000000130000000000000033333300
#03718:00001300000013000000000033333300
#03712:0013
#0371b:0013
#03713:00000000000000000033333300000000
#0371a:00000000000000000033333300000000
#03618:00130000
#03615:0000001300000000
#0361b:1313
#03612:0013000000130000
#04815:0000001300000013
#04815:0000000000000013
#04818:0013
#04812:0000000000130000
#0481b:00000013
#04712:00000013
#04715:2313
#04718:0000000000130000
#0471b:0000000000000013
#04918:1313
#0491b:00000013
#04915:0000000000130000
#04912:0000000000000013
#05712:0013000000000000
#05716:0013
#05714:00330033
#05715:0000003300330000
#05918:1300001300000013
#05912:1313
#0591b:0013000000130000
#05915:00130013
#01355:0063000000000000
#01352:0023
#01955:00000013
#02152:0000001300000000
#0215b:0000000000000013
#02155:63
#02158:0053
#0235b:00000013
#02358:53
#02758:00000013
#0295b:53
#02958:0000001300000000
#02952:0063
#02955:0000000000000013
#03155:0063000000000000
#03152:00000013
#0325b:000000000000000000000013
#03352:000000000000000000000013
#03355:00630000
#0335b:0063
#03555:6313
#0445a:0000001400000000
#04456:0014000000000000
#0525b:0000000000000013
#05252:0013000000000013
#05255:0000000000130000
#05258:0000001300000000
#0555b:0063000000000000
#05557:0023
#00655:0000000000000013
#0065b:0000000000000013
#00958:0053000000000000
#0095b:0023
#02455:0000000000000063
#02452:53
#02858:53
#02852:00000053
#0285b:0063
#02855:00630000
#0395b:63
#03955:0000000000000063
#04152:53
#04158:0000000000000053
#02658:0000000000000053
#0265b:63
#0375b:0063
#03752:0053
#04352:0000000000000014
#0435b:00130000
#04052:0013000000000000
#0425b:0013000000000000
#04252:0000000000000063
#04755:63
#0475b:0000000000000063
#04858:0013000000000000
#04958:53
#04952:0000000000000053
#05055:0013000000000000
#05752:0053000000000000
#05756:0023
#0515b:0000000000000013
#0013b0:13230000
#001320:0000000000000013
#002320:0023000000000000
#003320:13230000
#0033b0:0000000000000013
#0043b0:0023000000000000
#009380:0013000000000023
#009390:00330033
#0093a0:0000003300330000
#0093b0:0033
#013350:0013000000000023
#013340:00330033
#013330:0000003300330000
#013320:0033
#016320:13230000
#016350:0000000000000013
#017350:0023000000000000
#0183b0:13230000
#018380:0000000000000013
#019380:0023000000000000
#020320:133323000000000000000000
#020380:000000133323000000000000
#020350:000000000000133323000000
#0203b0:000000000000000000133323
#021350:13333300000000000000000000000000
#021320:00000033333323000000000000000000
#021380:00000000000000001333330000000000
#0213b0:00000000000000000000003333332300
#023380:13
#023390:0033000000000000
#0233a0:0000003300000000
#0233b0:0000000000332300
#024320:13
#024350:00230000
#024350:0000000000000013
#025320:0023000000000000
#0263b0:13
#026380:00230000
#026380:0000000000000013
#0273b0:0023000000000000
#028380:13
#028390:003300000000000000000000
#0283b0:002300000000
#028350:00130000
#028340:003300
#028320:000000000023000000000000
#0283b0:0013
#0283a0:000000000000003300000000
#028380:000023
#028320:00000013
#028330:000000000033
#028350:000000000000000000000023
#0293b0:13333333000000000000000000000000
#029380:00000000333323000000000000000000
#029320:00000000000000001333333300000000
#029350:00000000000000000000000033332300
#031350:0013000000000000
#031330:0000003300000000
#031320:0000000000332300
#032380:000000133323000000000000
#032350:000000000000133323000000
#033350:00130000
#033340:003300
#033320:000000000023000000000000
#0333b0:0013
#0333a0:000000000000003300000000
#033380:000023
#035350:13
#035320:00230000
#0363b0:0000000000001323
#037320:0013
#037330:00000000000000000033333300000000
#037350:00000000000000000000000033333323
#0373b1:0013
#0373a1:00000000000000000033333300000000
#037381:00000000000000000000000033333323
#0393b1:13
#039381:00230000
#039351:0000000000000013
#040321:0023000000000000
#041321:13
#041351:00230000
#041381:0000000000000013
#0423b1:0023000000000000
#042321:0000000000000013
#043351:23
#044351:0000000000000013
#045321:5323000000000000
#045381:0000001300000000
#0453b1:0000000053230000
#047351:13
#047321:00230000
#0473b1:0000000000000013
#048381:0023000000000000
#049381:13
#0493b1:00230000
#049321:0000000000000013
#050351:0023000000000000
#0503b1:0000000000000013
#0513b1:0023000000000000
#050350:0000000000000013
#051350:0023000000000000
#0553b0:0013000000000023
#055390:00330033
#055380:0000003300330000
#055370:0033
#057320:0013000000000023
#057340:00330033
#057350:0000003300330000
#057360:0033
